Jokeren (Georg Jacoby, 1928) HD 1080p VOSE

La edad de la Pantalla de Plata. Publica y encuentra enlaces p2p de filmes silentes (desde los albores del Cine hasta los años 30) en esta sección.
Responder
Avatar de Usuario
JoeGillis
Mensajes: 122
Registrado: Vie 18 May, 2007 23:04
Ubicación: Cuenca
Contactar:

Jokeren (Georg Jacoby, 1928) HD 1080p VOSE

Mensaje por JoeGillis » Sab 11 Dic, 2021 17:38

JOKEREN
(El Joker)


Imagen

Imagen

FILMAFFINITY

Director: Georg Jacoby
Reparto: Gabriel Gabrio, Renée Héribel, Elga Brink, Henry Edwards, Aage Hertel, Miles Mander, Christian Schrøder, Philip Bech, Ruth Komdrup, Aage Bendixen, Olga Svendsen
Guion: Georg Jacoby, Jens Locher. Obra: Noel Scott
Año: 1928
País: Alemania | Dinamarca
Duración: 101 min.
Producción: Deutsch-Nordische Film-Union GmbH, Goron Film, Nordisk Film Kompagni, Nordisk Film
Género: Intriga

Argumento: Un abogado fraudulento recibe unas cartas incriminatorias para una dama de la alta sociedad. Con objeto de aprovecharse de ellas, chantajea a la dama para evitar que su marido se entere de su pasado.



ImagenImagen
ImagenImagen
ImagenImagen


Datos Técnicos:
Spoiler: mostrar
Format : MPEG-4
Format profile : Base Media / Version 2
Codec ID : mp42 (mp42/mp41/isom/avc1)
File size : 3.69 GiB
Duration : 1 h 41 min
Overall bit rate mode : Variable
Overall bit rate : 5 209 kb/s
Encoded date : UTC 2021-11-24 11:20:18
Tagged date : UTC 2021-11-24 11:20:18

Video
ID : 1
Format : AVC
Format/Info : Advanced Video Codec
Format profile : High@L4
Format settings, CABAC : Yes
Format settings, ReFrames : 5 frames
Codec ID : avc1
Codec ID/Info : Advanced Video Coding
Duration : 1 h 41 min
Bit rate : 4 951 kb/s
Width : 1 920 pixels
Height : 1 080 pixels
Display aspect ratio : 16:9
Frame rate mode : Constant
Frame rate : 24.000 FPS
Color space : YUV
Chroma subsampling : 4:2:0
Bit depth : 8 bits
Scan type : Progressive
Bits/(Pixel*Frame) : 0.099
Stream size : 3.51 GiB (95%)
Writing library : x264 core 164 r10 66a5bc1
Encoding settings : cabac=1 / ref=5 / deblock=1:0:0 / analyse=0x3:0x113 / me=hex / subme=8 / psy=1 / psy_rd=1.00:0.00 / mixed_ref=1 / me_range=16 / chroma_me=1 / trellis=2 / 8x8dct=1 / cqm=0 / deadzone=21,11 / fast_pskip=1 / chroma_qp_offset=-2 / threads=34 / lookahead_threads=5 / sliced_threads=0 / nr=0 / decimate=1 / interlaced=0 / bluray_compat=0 / stitchable=1 / constrained_intra=0 / bframes=3 / b_pyramid=2 / b_adapt=2 / b_bias=0 / direct=3 / weightb=1 / open_gop=0 / weightp=2 / keyint=infinite / keyint_min=24 / scenecut=40 / intra_refresh=0 / rc_lookahead=50 / rc=crf / mbtree=1 / crf=20.0 / qcomp=0.60 / qpmin=5 / qpmax=69 / qpstep=4 / vbv_maxrate=5500 / vbv_bufsize=15000 / crf_max=0.0 / nal_hrd=none / filler=0 / ip_ratio=1.40 / aq=1:1.00
Encoded date : UTC 2021-11-24 11:20:18
Tagged date : UTC 2021-11-24 11:20:18
Color range : Limited
Color primaries : BT.709
Transfer characteristics : BT.709
Matrix coefficients : BT.709

Audio
ID : 2
Format : AAC
Format/Info : Advanced Audio Codec
Format profile : LC
Codec ID : 40
Duration : 1 h 41 min
Bit rate mode : Variable
Bit rate : 253 kb/s
Channel(s) : 2 channels
Channel positions : Front: L R
Sampling rate : 48.0 kHz
Frame rate : 46.875 FPS (1024 spf)
Compression mode : Lossy
Stream size : 184 MiB (5%)
Encoded date : UTC 2021-11-24 11:20:18
Tagged date : UTC 2021-11-24 11:20:18

Comentario de Eddie Constanti:

Excelente producción silente de Georg Jacoby, ya en los albores del sonoro, que tiene como telon de fondo el carnaval de Niza, bellamente fotografiado con todo detalle.

La película se inicia con una intriga que incluye a un malvado chantajista con bigote (Miles Mander, elegante villano, a quien vimos en titulos de Hitchcock), la esposa de un sir inglés (espléndido Gabriel Gabrio, el Jean Valjean de "Los miserables", de Fescourt y el protagonista de "El judio errante", que trajimos aquí hace tiempo) y la hermana de la esposa (sensible Elga Brink). Entre todos ellos deambula el Joker, un personaje simpático que nunca pìerde en el juego, los deportes y las damas (Henry Edwards, comedido y agradable, en un papel que daba la oportunidad de desmadrarse, algo que él evita).

La trama, que como hemos dicho se engloba en el género de la intriga, llega a la mitad de su metraje y corre el peligro de decantarse hacia la comedia de salón, pero Jacoby lo evita y hace intervenir inmediatamente a Miles Mander, quien nos tiene como alma en vilo por su propuesta villanesca, algo que se mantiene hasta el final, en una conclusión acertada y bien resuelta.

La copia nos llega en magníficas condiciones y a uno sólo le cabe lamentar que Gabriel Gabrio (ese hombre no tenía una caja torácica, sino una caja fuerte de acero), no tenga un mayor protagonismo en la trama. La vais a disfrutar, a Dios pongo por testigo.

Subtítulos en español de Eddie Constanti:

https://www.opensubtitles.org/es/subtit ... jokeren-es

ed2k linkJokeren (Georg Jacoby, 1928) HD 1080p ed2k link stats

:D

ostrata
Mensajes: 2516
Registrado: Mié 24 Mar, 2010 17:29

Re: Jokeren (Georg Jacoby, 1928) HD 1080p VOSI + SE

Mensaje por ostrata » Dom 12 Dic, 2021 09:14

Gracias. :)

Saludos.

Avatar de Usuario
baldomp
Mensajes: 511
Registrado: Mar 15 Ago, 2017 12:55

Re: Jokeren (Georg Jacoby, 1928) HD 1080p VOSI + SE

Mensaje por baldomp » Vie 24 Dic, 2021 07:11

Muchas gracias. 8)

kabuki
Mensajes: 271
Registrado: Dom 03 Oct, 2004 02:00

Re: Jokeren (Georg Jacoby, 1928) HD 1080p VOSE

Mensaje por kabuki » Dom 02 Ene, 2022 21:06

Muchas gracias,JoeGillis y Eddie.

Responder