Bad Boys (Rick Rosenthal, 1983) HD 1080p Dual SE

Foro orientado a películas de calidad posteriores a 1980. Publica sólo BDRips, DVDRips o TVRips (no Screeners, CAMs, etc.).
Responder
Avatar de Usuario
baldomp
Mensajes: 254
Registrado: Mar 15 Ago, 2017 12:55

Bad Boys (Rick Rosenthal, 1983) HD 1080p Dual SE

Mensaje por baldomp » Jue 30 Jul, 2020 09:28


No encuentro esta peli de Rick Rosenthal a golpe de buscador en la Web (Igual me equivoco). Si es así, disculpadme.

Bad Boys, 1983

Imagen
"cada nuevo día un desafío" (¿y quien no entra en el cine?)


Ficha policial:
  • Título original: Bad Boys
  • Año: 1983
  • Duración: 123 min.
  • País: Estados Unidos
  • Dirección: Rick Rosenthal
  • Guion: Richard Di Lello
  • Música: Bill Conti
  • Fotografía: Bruce Surtees, Donald E. Thorin
  • Reparto: Sean Penn, Reni Santoni, Jim Moody, Eric Gurry, Esai Morales, Ally Sheedy, Clancy Brown, Robert Lee Rush, John Zenda, Alan Ruck
  • Productora: Universal Pictures, EMI Films
  • Género: Thriller. Drama | Drama carcelario
Ficha policial:
  • Premios: 1983: Asociación de Críticos de Los Angeles: Premio Nueva generación (Sean Penn)
Imagen
Sinopsis

Las calles de Chicago son el escenario de la violencia que enfrenta a las bandas rivales y a la policía. Uno de los miembros más duros de la banda protagonista es Mick O'Brien, un joven que ya ha cumplido varias condenas. Mientras es perseguido por la policía, Mick mata accidentalmente al hermano pequeño de su implacable enemigo Paco. Ya en la cárcel, vive sumergido en un mundo dominado por el miedo y la intimidación, pero tendrá una oportunidad para escapar de la espiral de violencia y odio. (FILMAFFINITY)

Una película de "¡este es el de...!"
Corria el año 83 y al elegir jóvenes actores, es normal que esta película esté plagada de esas caras que luego nos han acompañado y, en el mejor de los casos, acaban en una u otra producción televisiva. Si... ese actor típico de la expresión "¡Mira... este es el actor que sale en... haciendo de...!"

Sean Penn (aquí un "nene" que ganó el premio a la "nueva generación", Esai Morales, que tras "La Bamba" vereis en cuantos NCIS ("Ochoa") y "Sitcoms" nos depare el mercado actual. Ally Sheedy, que despues sería una de los cinco del club, acompañaría al "número 5" ("querencia" por el número primo, oiga) en la búsqueda de su humanidad.Clancy Brown, un rudo contrincante de no se donde miro Lambert en "los inmortales" y que despues, realmente, no ha parado. Alan Ruck, el típico rostro que está habitualmente haciendo grupo, el típico "amigo del protagonista" (de Ferris Bueller, entre tantos).

De agradecer. Gente que siempre ha estado contándonos historias. Tal vez algunos sin protagonismo directo, pero ... siempre es necesario quien complementa el trabajo del protagonista...


Imagen


Imagen
Spoiler: mostrar
Imagen

... a los alemanes les mola más poner una especie de "luger" en el pasquín

Imagen
si había que decantarse por ir al cine en función de las "fotografías" ... hacía falta imaginación :mrgreen:

Imagen
Capturas

Imagen

Imagen

Imagen

Imagen



Datos stream

Código: Seleccionar todo

Format                                   : Matroska
Format version                           : Version 4
File size                                : 7.25 GiB
Duration                                 : 2 h 3 min
Overall bit rate                         : 8 384 kb/s
Movie name                               : Bad Boys (1983)
Encoded date                             : UTC 2020-07-29 19:29:17
Writing application                      : mkvmerge v34.0.0 ('Sight and Seen') 64-bit
Writing library                          : libebml v1.3.7 + libmatroska v1.5.0 / Lavf58.29.100

Video
ID                                       : 1
Format                                   : AVC
Format/Info                              : Advanced Video Codec
Format profile                           : Main@L4
Format settings                          : CABAC / 4 Ref Frames
Format settings, CABAC                   : Yes
Format settings, Reference frames        : 4 frames
Codec ID                                 : V_MPEG4/ISO/AVC
Duration                                 : 2 h 3 min
Bit rate                                 : 8 087 kb/s
Width                                    : 1 916 pixels
Height                                   : 1 040 pixels
Display aspect ratio                     : 1.85:1
Frame rate mode                          : Constant
Frame rate                               : 23.976 (24000/1001) FPS
Color space                              : YUV
Chroma subsampling                       : 4:2:0
Bit depth                                : 8 bits
Scan type                                : Progressive
Bits/(Pixel*Frame)                       : 0.169
Stream size                              : 6.99 GiB (96%)
Writing library                          : x264 core 157 r2935 545de2f
Encoding settings                        : cabac=1 / ref=3 / deblock=1:0:0 / analyse=0x1:0x111 / me=hex / subme=7 / psy=1 / psy_rd=1.00:0.00 / mixed_ref=1 / me_range=16 / chroma_me=1 / trellis=1 / 8x8dct=0 / cqm=0 / deadzone=21,11 / fast_pskip=1 / chroma_qp_offset=-2 / threads=6 / lookahead_threads=1 / sliced_threads=0 / nr=0 / decimate=1 / interlaced=0 / bluray_compat=0 / constrained_intra=0 / bframes=3 / b_pyramid=2 / b_adapt=1 / b_bias=0 / direct=1 / weightb=1 / open_gop=0 / weightp=2 / keyint=240 / keyint_min=24 / scenecut=40 / intra_refresh=0 / rc_lookahead=40 / rc=crf / mbtree=1 / crf=20.0 / qcomp=0.60 / qpmin=0 / qpmax=69 / qpstep=4 / vbv_maxrate=20000 / vbv_bufsize=25000 / crf_max=0.0 / nal_hrd=none / filler=0 / ip_ratio=1.40 / aq=1:1.00
Default                                  : Yes
Forced                                   : Yes
Color range                              : Limited
Color primaries                          : BT.709
Transfer characteristics                 : BT.709
Matrix coefficients                      : BT.709

Audio #1
ID                                       : 2
Format                                   : AAC LC
Format/Info                              : Advanced Audio Codec Low Complexity
Codec ID                                 : A_AAC-2
Duration                                 : 2 h 3 min
Bit rate                                 : 78.2 kb/s
Channel(s)                               : 1 channel
Channel layout                           : C
Sampling rate                            : 48.0 kHz
Frame rate                               : 46.875 FPS (1024 SPF)
Compression mode                         : Lossy
Delay relative to video                  : -21 ms
Stream size                              : 69.2 MiB (1%)
Title                                    : Spanish (some english)
Language                                 : Spanish
Default                                  : No
Forced                                   : Yes

Audio #2
ID                                       : 3
Format                                   : AAC LC
Format/Info                              : Advanced Audio Codec Low Complexity
Codec ID                                 : A_AAC-2
Duration                                 : 2 h 3 min
Bit rate                                 : 224 kb/s
Channel(s)                               : 2 channels
Channel layout                           : L R
Sampling rate                            : 48.0 kHz
Frame rate                               : 46.875 FPS (1024 SPF)
Compression mode                         : Lossy
Delay relative to video                  : -21 ms
Stream size                              : 198 MiB (3%)
Title                                    : English
Language                                 : English
Default                                  : Yes
Forced                                   : No

Text #1
ID                                       : 4
Format                                   : UTF-8
Codec ID                                 : S_TEXT/UTF8
Codec ID/Info                            : UTF-8 Plain Text
Duration                                 : 1 h 30 min
Bit rate                                 : 6 b/s
Count of elements                        : 124
Stream size                              : 4.40 KiB (0%)
Title                                    : Forzed Spanish (dialogues)
Language                                 : Spanish
Default                                  : Yes
Forced                                   : Yes

Text #2
ID                                       : 5
Format                                   : UTF-8
Codec ID                                 : S_TEXT/UTF8
Codec ID/Info                            : UTF-8 Plain Text
Duration                                 : 1 h 56 min
Bit rate                                 : 28 b/s
Count of elements                        : 928
Stream size                              : 24.7 KiB (0%)
Title                                    : Spanish
Language                                 : Spanish
Default                                  : No
Forced                                   : No

Text #3
ID                                       : 6
Format                                   : UTF-8
Codec ID                                 : S_TEXT/UTF8
Codec ID/Info                            : UTF-8 Plain Text
Duration                                 : 1 h 56 min
Bit rate                                 : 31 b/s
Count of elements                        : 922
Stream size                              : 26.8 KiB (0%)
Title                                    : English
Language                                 : English
Default                                  : No
Forced                                   : No

Menu
00:00:00.000                             : :Smash and Grab
00:07:53.556                             : :Bad Attitudes
00:17:01.312                             : :Deal Gone Bad
00:25:13.971                             : :Fresh Meat
00:35:03.101                             : :Life on the Inside
00:44:41.679                             : :Code of Silence
00:53:44.847                             : :New Barn Boss
01:05:24.087                             : :"I Gotta See Her"
01:10:38.192                             : :Breakout
01:22:23.480                             : :Paco Arrives
01:27:51.308                             : :Odds of Survival
01:38:19.060                             : :Surprise Inspection
01:42:51.791                             : :Flare-Up
01:51:14.042                             : :Debt of Blood
01:56:35.238                             : :Redemption
01:58:26.099                             : :End Credits

Fuentes
  • Video: Blu-ray edición Studio Canal+ (*)
  • Pista 1: Castellano, del DVDRip que tenía anteriormente (no lo he tocado porque no tiene un bitrate "alegre") (**)
  • Pista 2: Inglés, AAC transformado de la pista del BluRay
  • Subtítulos (SPA): OCR del BluRay.
  • Subtítulos (SPA): (Forzados). De la "scene" (no recuerdo ahora), corregidos.
  • Subtítulos (ENG): OCR del BluRay.

(*) La calidad del video no es "para tirar cohetes", da la sensación de que es la misma fuente que el DVD. En cualquier caso el "1080" que encontramos por ahí está rebajadísimo de bitrate, lo que genera un aspecto todavía más "neblinoso" y con menos acutancia.


(**) El doblaje contiene partes en inglés (así lo distribuyó EMI en su DVD). Sea por partes añadidas o (pienso más que este es el motivo), escenas/diálogos eliminados. En un film sobre esta temática no es un asunto raro. Sin ir más lejos, según IMDB: "1 hr 45 min (105 min) (Sweden)". ¡Dieciocho minutos menos en Suecia!. Los subtítulos forzados traducen estas escenas.

El doblaje tiene "la calidad que tiene", si alguien tiene algo mejor... ¡agradecido! :wacky: . De todos modos, y más con esta mezcolanza, os recomiendo (siempre) la VO :mrgreen:


Enlace

Bad Boys (Rick Rosenthal 1983) BDRip 1080 Dual Subs(Esp-Eng) by baldomp


Última edición por baldomp el Jue 30 Jul, 2020 18:23, editado 3 veces en total.

ostrata
Mensajes: 2118
Registrado: Mié 24 Mar, 2010 17:29

Re: Bad Boys (Rick Rosenthal 1983) HD 1080p Dual SE

Mensaje por ostrata » Jue 30 Jul, 2020 13:50

Gracias, baldomp. Además, no la conozco. O sí, pero no me acuerdo. :)

Saludos.

joramor
Mensajes: 1622
Registrado: Vie 05 Nov, 2010 19:55

Re: Bad Boys (Rick Rosenthal 1983) HD 1080p Dual SE

Mensaje por joramor » Jue 30 Jul, 2020 18:57

Muchas gracias baldomp. Salu2.

Avatar de Usuario
eulsus
Mensajes: 1261
Registrado: Vie 18 May, 2007 10:41
Ubicación: La Palma

Re: Bad Boys (Rick Rosenthal 1983) HD 1080p Dual SE

Mensaje por eulsus » Jue 30 Jul, 2020 21:23

Muchas gracias por este documental sobre los Pistons bicampeones del mundo, baldomp. :sonrisa:

Un fuerte abrazo.
Imagen
Antonio García-Trevijano Forte (1927-2018)
"Para que yo sea libre, todos tienen que ser libres"

Abstención activa hasta que haya Libertad Colectiva

Responder