L'Effondrement (El Colapso) (Les Parasites, 2019) 1080p Dual SE

Aquí tienen cabida todas aquellas series, programas, anuncios, etc. que tragamos durante tantos años, cuando no existía Internet y ni siquiera podíamos elegir.
Avatar de Usuario
Jacob
Exprópiese
Mensajes: 9642
Registrado: Jue 01 Jul, 2004 02:00
Ubicación: Where no one has gone before!

L'Effondrement (El Colapso) (Les Parasites, 2019) 1080p Dual SE

Mensaje por Jacob » Lun 27 Jul, 2020 13:43

L'Effondrement
El Colapso

Imagen

Les Parasites, Francia, 2019
----------------------
Info variada:


https://www.filmaffinity.com/es/film625002.html
https://www.imdb.com/title/tt11248266/
https://blogs.diariovasco.com/series-go ... uiabierto/

----------------------
Datos artísticos:

Miniserie de 8 capítulos.

Duración: 20 min por capítulo
Género: Supervivencia. Drama. Miniserie de TV.

Creadores: Jérémy Bernard, Guillaume Desjardins, Bastien Ughetto
Dirección: Jérémy Bernard, Guillaume Desjardins, Bastien Ughetto
Guión: Jérémy Bernard, Guillaume Desjardins, Bastien Ughetto
Forman parte de un colectivo que se hace llamar Les Parasites.

Música: Edouard Joguet
Fotografía: Clémence Plaquet

Productora: Canal+
Distribuidora: Canal+

Reparto: Bellamine Abdelmalek, Lubna Azabal, Lola Burbail, Thibault de Montalembert, Audrey Fleurot, Samir Guesmi, Claire Guillon, Caroline Piette, Philippe Rebbot, Pierre Rousselet, Bastien Ughetto y más gente.

Sinopsis: 8 episodios, filmados todos ellos en plano secuencia. Un suceso -del que desconocemos las causas y el origen- ha provocado el colapso (el "effondrement" del título original) de la sociedad francesa, y es la espoleta que provoca una serie de historias independientes en diferentes localizaciones, que comparten la desesperación y la huida de las personas que intentan sobrevivir.


----------------------

Capturas y datos de los archivos:

(Sí, les han dejao las bandas negras. :roll: )


Imagen
Imagen
Imagen

Código: Seleccionar todo

General
Unique ID                                : 316242606971592254635375597625666150440 (0xEDEA1C5347F00FBA0AB1E23FD01BA028)
Complete name                            : El colapso 1x01 El supermercado [WEB-DL FLMN 1080p h264 AAC Dual Subs][Adrià][GrupoTS].mkv
Format                                   : Matroska
Format version                           : Version 4 / Version 2
File size                                : 721 MiB
Duration                                 : 22mn 0s
Overall bit rate                         : 4 582 Kbps
Encoded date                             : UTC 2020-07-14 12:37:27
Writing application                      : mkvmerge v32.0.0 ('Astral Progressions') 32-bit
Writing library                          : libebml v1.3.7 + libmatroska v1.5.0

Video
ID                                       : 1
Format                                   : AVC
Format/Info                              : Advanced Video Codec
Format profile                           : High@L4
Format settings, CABAC                   : Yes
Format settings, ReFrames                : 4 frames
Codec ID                                 : V_MPEG4/ISO/AVC
Duration                                 : 22mn 0s
Bit rate                                 : 3 952 Kbps
Width                                    : 1 920 pixels
Height                                   : 1 080 pixels
Display aspect ratio                     : 16:9
Frame rate mode                          : Constant
Frame rate                               : 24.000 fps
Color space                              : YUV
Chroma subsampling                       : 4:2:0
Bit depth                                : 8 bits
Scan type                                : Progressive
Bits/(Pixel*Frame)                       : 0.079
Stream size                              : 622 MiB (86%)
Default                                  : Yes
Forced                                   : No
Color range                              : Limited
Color primaries                          : BT.709
Transfer characteristics                 : BT.709
Matrix coefficients                      : BT.709

Audio #1
ID                                       : 2
Format                                   : AAC
Format/Info                              : Advanced Audio Codec
Format profile                           : LC
Codec ID                                 : A_AAC
Duration                                 : 22mn 0s
Bit rate                                 : 313 Kbps
Channel(s)                               : 2 channels
Channel positions                        : Front: L R
Sampling rate                            : 48.0 KHz
Frame rate                               : 46.875 fps (1024 spf)
Compression mode                         : Lossy
Stream size                              : 49.3 MiB (7%)
Title                                    : Castellano
Language                                 : Spanish
Default                                  : Yes
Forced                                   : No

Audio #2
ID                                       : 3
Format                                   : AAC
Format/Info                              : Advanced Audio Codec
Format profile                           : LC
Codec ID                                 : A_AAC
Duration                                 : 22mn 0s
Bit rate                                 : 313 Kbps
Channel(s)                               : 2 channels
Channel positions                        : Front: L R
Sampling rate                            : 48.0 KHz
Frame rate                               : 46.875 fps (1024 spf)
Compression mode                         : Lossy
Stream size                              : 49.3 MiB (7%)
Title                                    : Francés
Language                                 : French
Default                                  : No
Forced                                   : No

Text #1
ID                                       : 4
Format                                   : UTF-8
Codec ID                                 : S_TEXT/UTF8
Codec ID/Info                            : UTF-8 Plain Text
Duration                                 : 6s 351ms
Bit rate                                 : 41 bps
Count of elements                        : 2
Stream size                              : 33.0 Bytes (0%)
Title                                    : Castellano [Forzados]
Language                                 : Spanish
Default                                  : No
Forced                                   : Yes

Text #2
ID                                       : 5
Format                                   : UTF-8
Codec ID                                 : S_TEXT/UTF8
Codec ID/Info                            : UTF-8 Plain Text
Duration                                 : 19mn 11s
Bit rate                                 : 67 bps
Count of elements                        : 276
Stream size                              : 9.54 KiB (0%)
Title                                    : Castellano [Completos]
Language                                 : Spanish
Default                                  : No
Forced                                   : No

Text #3
ID                                       : 6
Format                                   : UTF-8
Codec ID                                 : S_TEXT/UTF8
Codec ID/Info                            : UTF-8 Plain Text
Duration                                 : 21mn 27s
Bit rate                                 : 56 bps
Count of elements                        : 277
Stream size                              : 8.92 KiB (0%)
Title                                    : Catalán [Completos]
Language                                 : Catalan
Default                                  : No
Forced                                   : No


----------------------

Enlaces gracias a GrupoTS tamaño 1080p en Dual Francés-Español con subtítulos en Español y Catalán.
(Hay chorrocientas fuentes, aprovechen.)


El colapso 1x01 El supermercado (WEB-DL FLMN 1080p h264 AAC Dual Subs)(Adrià)(GrupoTS).mkv
El colapso 1x02 La estación de serivicio (WEB-DL FLMN 1080p h264 AAC Dual Subs)(Adrià)(GrupoTS).mkv
El colapso 1x03 El aeródromo (WEB-DL FLMN 1080p h264 AAC Dual Subs)(Adrià)(GrupoTS).mkv
El colapso 1x04 La aldea (WEB-DL FLMN 1080p h264 AAC Dual Subs)(Adrià)(GrupoTS).mkv
El colapso 1x05 La central (WEB-DL FLMN 1080p h264 AAC Dual Subs)(Adrià)(GrupoTS).mkv
El colapso 1x06 La residencia (WEB-DL FLMN 1080p h264 AAC Dual Subs)(Adrià)(GrupoTS).mkv
El colapso 1x07 La isla (WEB-DL FLMN 1080p h264 AAC Dual Subs)(Adrià)(GrupoTS).mkv
El colapso 1x08 La emisión (WEB-DL FLMN 1080p h264 AAC Dual Subs)(Adrià)(GrupoTS).mkv


----------------------


Foto de Roxane Bret:
Imagen


Intreresante y notable filmet francés con forma de miniserie que trata sobre... agárrense las pestañas... el colapso de la civilización. Los capítulos suceden en orden temporal creciente pero cada uno se ambienta en un lugar diferente. Ahora con la cosa de la pandemia viene que ni hecha a propósito.
El rodaje en plano secuencia y con steadicam (o algo asín) ayudan a que uno se sumerja totalmente en la acción. Los guiones son buenísimos y las actuaciones son apreciables aun con algún altibajo lógico porque, después de todo, son actores franceses (guiño guiño).

Recomiendo verla toda de una sentada porque no fui capaz de levantarme en los 160 minutos totales que dura. Enganchado total. Hay momentos dramáticos (bastantes) y momentos divertidos (pocos). Aun siendo cachitos de historias el poso que deja es el de una narración coherente y completa, el de un viaje con inicio y final. Y el final es el colapso.

Hasta luego. Me voy a comprar papel higiénico.

Responder