Hombre mirando al sudeste (Eliseo Subiela, 1986) HD 1080p VOSI

Foro orientado a películas de calidad posteriores a 1980. Publica sólo BDRips, DVDRips o TVRips (no Screeners, CAMs, etc.).
Responder
castleaco
Mensajes: 115
Registrado: Vie 18 Abr, 2014 10:14

Hombre mirando al sudeste (Eliseo Subiela, 1986) HD 1080p VOSI

Mensaje por castleaco » Vie 24 Jul, 2020 20:26

Hombre mirando al sudeste

Eliseo Subiela, 1986

Imagen

Imagen

Título original
Hombre mirando al sudeste
Año
1986
Duración
104 min.
País
Imagen
Dirección
Eliseo Subiela
Guion
Eliseo Subiela
Música
Pedro Aznar
Fotografía
Ricardo de Angelis
Reparto
Hugo Soto, Lorenzo Quinteros, Inés Vernengo, Rubens Correa, David Edery, Tomás Voth, Rodolfo Rodas, Horacio Marasi, Jean-Pierre Reguerraz
Productora
Cinequanon
Género
Drama. Intriga. Ciencia ficción | Discapacidad
Sinopsis
El doctor Julio Denis es un médico psiquiatra y trabaja en un neuropsiquiátrico. Un día llega al hospital un joven, Rantés, que dice ser un ser de otro planeta. Lo trata como paranoico, pero Rantés irá introduciéndose en su vida, haciéndolo dudar de si realmente está loco, con lo que, sutilmente, lo obliga a replantear su vida y profesión. (FILMAFFINITY)

Premios
1986: San Sebastián: Mejor Ópera Prima
1987: Nominada al Goya a la mejor película extranjera de habla hispana
1986: Festival de Toronto: Premio FIPRESCI

Críticas

"Hugo Soto logra dar una enorme intensidad a su complejísimo personaje entre la locura y la genialidad"
Diario El País
"Es un filme reflexivo y crítico con el pasado reciente de Argentina y con la manera como funciona la sociedad, en toda su alienación y deshumanización."
Oswaldo Osorio: Diario El Colombiano

Código: Seleccionar todo

General
Unique ID                      : 233571322520956878800071839920891098265 (0xAFB8334EAE49E634B6E300B2A2A7F499)
Complete name                  : \\castleaco\video\friki_jobs\man.facing.southeast.1986.1080p.bluray.x264-usury.mkv
Format                         : Matroska
Format version                 : Version 4 / Version 2
File size                      : 9.83 GiB
Duration                       : 1 h 48 min
Overall bit rate               : 13.0 Mb/s
Encoded date                   : UTC 2017-05-16 17:26:08
Writing application            : mkvmerge v8.3.0 ('Over the Horizon') 64bit
Writing library                : libebml v1.3.1 + libmatroska v1.4.2

Video
ID                             : 1
Format                         : AVC
Format/Info                    : Advanced Video Codec
Format profile                 : High@L4.1
Format settings, CABAC         : Yes
Format settings, RefFrames     : 4 frames
Codec ID                       : V_MPEG4/ISO/AVC
Duration                       : 1 h 48 min
Bit rate                       : 11.5 Mb/s
Width                          : 1 920 pixels
Height                         : 1 040 pixels
Display aspect ratio           : 1.85:1
Frame rate mode                : Constant
Frame rate                     : 23.976 (24000/1001) FPS
Color space                    : YUV
Chroma subsampling             : 4:2:0
Bit depth                      : 8 bits
Scan type                      : Progressive
Bits/(Pixel*Frame)             : 0.239
Stream size                    : 8.68 GiB (88%)
Writing library                : x264 core 148 r2744 b97ae06
Encoding settings              : cabac=1 / ref=4 / deblock=1:-3:-3 / analyse=0x3:0x133 / me=umh / subme=9 / psy=1 / psy_rd=1.00:0.00 / mixed_ref=1 / me_range=16 / chroma_me=1 / trellis=2 / 8x8dct=1 / cqm=0 / deadzone=21,11 / fast_pskip=0 / chroma_qp_offset=-2 / threads=32 / lookahead_threads=2 / sliced_threads=0 / nr=0 / decimate=1 / interlaced=0 / bluray_compat=0 / constrained_intra=0 / bframes=3 / b_pyramid=2 / b_adapt=1 / b_bias=0 / direct=3 / weightb=1 / open_gop=0 / weightp=2 / keyint=250 / keyint_min=23 / scenecut=40 / intra_refresh=0 / rc_lookahead=50 / rc=2pass / mbtree=1 / bitrate=11451 / ratetol=1.0 / qcomp=0.60 / qpmin=0 / qpmax=69 / qpstep=4 / cplxblur=20.0 / qblur=0.5 / ip_ratio=1.40 / aq=1:1.00
Language                       : English
Default                        : Yes
Forced                         : No

Audio
ID                             : 2
Format                         : DTS
Format/Info                    : Digital Theater Systems
Mode                           : 16
Format settings, Endianness    : Big
Codec ID                       : A_DTS
Duration                       : 1 h 48 min
Bit rate mode                  : Constant
Bit rate                       : 1 509 kb/s
Channel(s)                     : 2 channels
Channel positions              : Front: L R
Sampling rate                  : 48.0 kHz
Frame rate                     : 93.750 FPS (512 SPF)
Bit depth                      : 24 bits
Compression mode               : Lossy
Stream size                    : 1.15 GiB (12%)
Language                       : Spanish
Default                        : Yes
Forced                         : No

Text
ID                             : 3
Format                         : UTF-8
Codec ID                       : S_TEXT/UTF8
Codec ID/Info                  : UTF-8 Plain Text
Duration                       : 1 h 45 min
Bit rate                       : 44 b/s
Count of elements              : 914
Stream size                    : 34.4 KiB (0%)
Title                          : forced
Language                       : English
Default                        : Yes
Forced                         : Yes

Menu
00:00:00.000                   : en:00:00:00.000
00:12:13.024                   : en:00:12:13.024
00:23:47.301                   : en:00:23:47.301
00:32:53.054                   : en:00:32:53.054
00:39:47.302                   : en:00:39:47.302
00:57:04.713                   : en:00:57:04.713
01:09:55.858                   : en:01:09:55.858
01:22:09.383                   : en:01:22:09.383
01:29:53.305                   : en:01:29:53.305
01:35:13.833                   : en:01:35:13.833


Capturas:
Imagen

Imagen

Imagen

Imagen

Ripeo de usury. Aviso de Forrest Gump de la existencia de enlace a esta peli vía torrent (Muchas gracias). Estaba MUY pobre de fuentes, así que la emulizo para preservarla.

Enlace:
Hombre.mirando.al.sudeste.1986.1080p.bluray.x264.DTS.spa.Sub.eng-usury.mkv
Última edición por castleaco el Sab 25 Jul, 2020 07:44, editado 1 vez en total.
Mis aportes:
- La amenaza fantasma "versión oscura": viewtopic.php?f=1015&t=72843
- Europa: viewtopic.php?f=1015&t=13050#p898547
- 2010 odisea 2

Avatar de Usuario
eulsus
Mensajes: 1261
Registrado: Vie 18 May, 2007 10:41
Ubicación: La Palma

Re: Hombre mirando al sudeste (Eliseo Subiela, 1986) HD 1080p VOSI

Mensaje por eulsus » Vie 24 Jul, 2020 23:01

Gracias, castleaco. Es muy buena idea la de emulizar este tipo de torrents que están tan justitos de semillas, antes de que se extingan.

Puedes agregar a tu post el enlace a IMDb (te lo dejo), corregir en la ficha el campo de país que has puesto Argentina por duplicado y apañar el enlace.

Imagen

El enlace podrías dejarlo tal que así:
man.facing.southeast.1986.1080p.bluray.x264.DTS.spa.Sub.eng-usury.mkv

O mejor poniendo el título original:
Hombre.mirando.al.sudeste.1986.1080p.bluray.x264.DTS.spa.Sub.eng-usury.mkv
Imagen
Antonio García-Trevijano Forte (1927-2018)
"Para que yo sea libre, todos tienen que ser libres"

Abstención activa hasta que haya Libertad Colectiva

Granticidias
Mensajes: 68
Registrado: Sab 21 Ene, 2017 12:29

Re: Hombre mirando al sudeste (Eliseo Subiela, 1986) HD 1080p VOSI

Mensaje por Granticidias » Sab 25 Jul, 2020 02:27

Me uno al agradecimiento por evitar que se pierdan estas películas.

castleaco
Mensajes: 115
Registrado: Vie 18 Abr, 2014 10:14

Re: Hombre mirando al sudeste (Eliseo Subiela, 1986) HD 1080p VOSI

Mensaje por castleaco » Sab 25 Jul, 2020 07:45

eulsus escribió:
Vie 24 Jul, 2020 23:01
Gracias, castleaco. Es muy buena idea la de emulizar este tipo de torrents que están tan justitos de semillas, antes de que se extingan.

Puedes agregar a tu post el enlace a IMDb (te lo dejo), corregir en la ficha el campo de país que has puesto Argentina por duplicado y apañar el enlace.

Imagen

El enlace podrías dejarlo tal que así:
man.facing.southeast.1986.1080p.bluray.x264.DTS.spa.Sub.eng-usury.mkv

O mejor poniendo el título original:
Hombre.mirando.al.sudeste.1986.1080p.bluray.x264.DTS.spa.Sub.eng-usury.mkv
Actualizado el post inicial. Muchas gracias, eulsus.

Y ya de paso he actualizado un par de detallitos más observando alguno de tus post. :wink:
Mis aportes:
- La amenaza fantasma "versión oscura": viewtopic.php?f=1015&t=72843
- Europa: viewtopic.php?f=1015&t=13050#p898547
- 2010 odisea 2

Avatar de Usuario
Dardo
Arrow Thrower Clown
Mensajes: 16432
Registrado: Dom 19 Oct, 2003 02:00
Ubicación: Entre Encinas y Dolomías

Re: Hombre mirando al sudeste (Eliseo Subiela, 1986) HD 1080p VOSI

Mensaje por Dardo » Sab 25 Jul, 2020 12:34

Pinta muy interesante, aunque me temo que es de las de verla yo solito no vaya a ser que tome caminos muy profundos para los que los mortales que habitan con nosotros "los cinéfilos frikis" puedan alterarse :mrgreen:

castleaco, es una buena manera de colaborar, emulizando, refrescando nuevas temáticas, en fin todo suma. :sonrisa:

castleaco
Mensajes: 115
Registrado: Vie 18 Abr, 2014 10:14

Re: Hombre mirando al sudeste (Eliseo Subiela, 1986) HD 1080p VOSI

Mensaje por castleaco » Dom 26 Jul, 2020 12:44

Dardo escribió:
Sab 25 Jul, 2020 12:34
Pinta muy interesante, aunque me temo que es de las de verla yo solito no vaya a ser que tome caminos muy profundos para los que los mortales que habitan con nosotros "los cinéfilos frikis" puedan alterarse :mrgreen:

castleaco, es una buena manera de colaborar, emulizando, refrescando nuevas temáticas, en fin todo suma. :sonrisa:
Intuyo por tus palabras que aún no la has visto, Dardo. Dale un tiento que merece mucho la pena. Solo o acompañado, eso ya... :lol:
Mis aportes:
- La amenaza fantasma "versión oscura": viewtopic.php?f=1015&t=72843
- Europa: viewtopic.php?f=1015&t=13050#p898547
- 2010 odisea 2

Avatar de Usuario
paizoco
Mensajes: 2699
Registrado: Vie 21 Nov, 2003 01:00
Ubicación: Far West

Re: Hombre mirando al sudeste (Eliseo Subiela, 1986) HD 1080p VOSI

Mensaje por paizoco » Dom 26 Jul, 2020 20:59

Me apunto, muchas gracias.

Avatar de Usuario
Spanish Jhonny
Mensajes: 2851
Registrado: Mar 18 Sep, 2012 16:01

Re: Hombre mirando al sudeste (Eliseo Subiela, 1986) HD 1080p VOSI

Mensaje por Spanish Jhonny » Lun 27 Jul, 2020 08:01

Renuevo la copia que tengo, peli curiosona que me gustó.
Muchas gracias castleaco :plas: :plas:
Saludos

Avatar de Usuario
Forrest Gump
Mensajes: 1532
Registrado: Vie 18 May, 2007 18:06
Ubicación: Zihuatanejo

Re: Hombre mirando al sudeste (Eliseo Subiela, 1986) HD 1080p VOSI

Mensaje por Forrest Gump » Sab 01 Ago, 2020 01:33

Gran película de Subiela. Gracias por publicar el upgrade, castleaco. Me alegra verte participar en el foro de esta manera. :plas:
Made it, Ma, top of the world!

Responder