Six Bridges to Cross (Joseph Pevney, 1955) HD 1080p VOSE

Publica y encuentra enlaces p2p de filmes hasta 1980 en esta sección.
Responder
Avatar de Usuario
roisiano
Polemista nato
Mensajes: 5657
Registrado: Dom 17 Jul, 2005 02:00
Ubicación: Al final del río

Six Bridges to Cross (Joseph Pevney, 1955) HD 1080p VOSE

Mensaje por roisiano » Dom 19 Jul, 2020 00:14

Atraco sin huellas (Six Bridges to Cross) (Joseph Pevney, 1955)

Imagen
Imagen
Imagen
Imagen
Imagen

Filmaffinity | IMDb

Guion: Sydney Boehm (Historia: Joseph F. Dinneen)
Música: Frank Skinner, Herman Stein
Fotografía: William H. Daniels (B&W)
Reparto: Tony Curtis, George Nader, Julie Adams, Jay C. Flippen, Sal Mineo, Jan Merlin, Richard Castle, William Murphy, Kendall Clark, Don Keefer, Harry Bartell, Tito Vuolo
Productora: Universal International Pictures (UI)
Género: Drama | Crimen | Amistad | Robos & Atracos | Años 30 | Años 40 | Policíaco

Sinopsis:
Jerry Florea, joven cabecilla de una banda, resulta herido de bala tras recibir un disparo del policía novato Ed Gallagher. Pero Jerry y Ed acabarán haciéndose amigos y ayudándose a escalar mutuamente en sus respectivos mundos. (FILMAFFINITY)



Gracias a quienes compartieron el DVD.
Spoiler: mostrar
Dadas las (extrañas) circunstancias en las que actualmente parecemos movernos en el mundo p2p (en especial, en lo relativo a los trackers privados), de aquí en adelante haré "agradecimientos genéricos" a quienes compartieron la fuente original y no enlazaré a dicha fuente original en mis posts.
Disculpen las molestias
Detalles de la edición


------------------------------

Configuración del ripeo (vídeo / audio):

x264:
"C:\x264.exe" --preset veryslow --tune film --crf 18.7 --deblock -2:-2 --level 4.1 --output "C:\mi_ripeo.mkv" "C:\mi_script.avs"


QAAC (para AAC):
qaac -V 127 --ignorelength --adts --no-delay -o

------------------------------


Imagen
Imagen
Imagen
Imagen
Imagen
Imagen
Imagen
Imagen
Imagen

Código: Seleccionar todo

 
Format : Matroska 
Format version : Version 4 
File size : 8.47 GiB 
Duration : 1 h 36 min 
Overall bit rate : 12.6 Mb/s 
Writing application : mkvmerge v48.0.0 ('Fortress Around Your Heart') 64-bit 
Writing library : libebml v1.4.0 + libmatroska v1.6.0 

Video 
ID : 1 
Format : AVC 
Format/Info : Advanced Video Codec 
Format profile : High@L4.1 
Format settings : CABAC / 4 Ref Frames 
Format settings, CABAC : Yes 
Format settings, Reference frames : 4 frames 
Codec ID : V_MPEG4/ISO/AVC 
Duration : 1 h 36 min 
Bit rate : 12.4 Mb/s 
Width : 1 920 pixels 
Height : 1 036 pixels 
Display aspect ratio : 1.85:1 
Frame rate mode : Constant 
Frame rate : 23.976 (24000/1001) FPS 
Color space : YUV 
Chroma subsampling : 4:2:0 
Bit depth : 8 bits 
Scan type : Progressive 
Bits/(Pixel*Frame) : 0.261 
Stream size : 8.40 GiB (99%) 
Writing library : x264 core 161 r3015 4c2aafd 
Encoding settings : cabac=1 / ref=4 / deblock=1:-2:-2 / analyse=0x3:0x133 / me=umh / subme=10 / psy=1 / psy_rd=1.00:0.15 / mixed_ref=1 / me_range=24 / chroma_me=1 / trellis=2 / 8x8dct=1 / cqm=0 / deadzone=21,11 / fast_pskip=1 / chroma_qp_offset=-3 / threads=6 / lookahead_threads=1 / sliced_threads=0 / nr=0 / decimate=1 / interlaced=0 / bluray_compat=0 / constrained_intra=0 / bframes=8 / b_pyramid=2 / b_adapt=2 / b_bias=0 / direct=3 / weightb=1 / open_gop=0 / weightp=2 / keyint=250 / keyint_min=23 / scenecut=40 / intra_refresh=0 / rc_lookahead=60 / rc=crf / mbtree=1 / crf=18.7 / qcomp=0.60 / qpmin=0 / qpmax=69 / qpstep=4 / ip_ratio=1.40 / aq=1:1.00 
Language : English 
Default : Yes 
Forced : No 

Audio 
ID : 2 
Format : AAC LC 
Format/Info : Advanced Audio Codec Low Complexity 
Codec ID : A_AAC-2 
Duration : 1 h 36 min 
Bit rate : 105 kb/s 
Channel(s) : 2 channels 
Channel layout : L R 
Sampling rate : 48.0 kHz 
Frame rate : 46.875 FPS (1024 SPF) 
Compression mode : Lossy 
Stream size : 72.6 MiB (1%) 
Language : English 
Writing library : qaac 2.68, CoreAudioToolbox 7.10.9.0
Encoding settings : qaac -V 127 --ignorelength --adts --no-delay -o
VBR min./avg./max. : 4 / 129 / 325 Kb/s. 
Duration.......... : 4745.067 sec., (1h. 19m. 5.067s.)
Default : Yes 
Forced : No 

Text #1 
ID : 3 
Format : UTF-8 
Codec ID : S_TEXT/UTF8 
Codec ID/Info : UTF-8 Plain Text 
Duration : 1 h 35 min 
Bit rate : 71 b/s 
Count of elements : 1201 
Stream size : 49.8 KiB (0%) 
Language : Spanish 
Default : Yes 
Forced : No 

Text #2 
ID : 4 
Format : UTF-8 
Codec ID : S_TEXT/UTF8 
Codec ID/Info : UTF-8 Plain Text 
Duration : 1 h 35 min 
Bit rate : 71 b/s 
Count of elements : 1354 
Stream size : 49.8 KiB (0%) 
Language : English 
Default : No 
Forced : No 

Text #3 
ID : 5 
Format : VobSub 
Muxing mode : zlib 
Codec ID : S_VOBSUB 
Codec ID/Info : Picture based subtitle format used on DVDs 
Duration : 1 h 35 min 
Bit rate : 9 203 b/s 
Count of elements : 1354 
Stream size : 6.26 MiB (0%) 
Title : English Vobsubs 
Language : English 
Default : No 
Forced : No 

Menu 
00:00:00.000 : :Cpt. 01 
00:09:52.801 : :Cpt. 02 
00:19:09.023 : :Cpt. 03 
00:35:06.229 : :Cpt. 04 
00:44:10.523 : :Cpt. 05 
00:57:21.897 : :Cpt. 06 
01:12:24.048 : :Cpt. 07 
01:26:20.592 : :Cpt. 08



:arrow: BDRip V.O. 1080p, con subtítulos en español e inglés en el contenedor MKV (8.47 GBs)

:arrow: Subtítulos por separado
, por si alguien los necesita para... (72 KBs)


Los subtítulos en español son los de hammett (muchas gracias, una vez más), mínimamente corregidos y que ha yabían resincronizados con ajuste fino anteriormente.





:arrow: Cómo buscar archivos en emule. Necesario para buscar lo anterior...





----------------------------------------------------


Imagen Imagen

Última versión del codec x264 (inglés) | Cómo crear BDRips MKV/x264 con UsEac3To + MeGui (español)
Manual de ripeo con x264 en línea de comandos (español) (1) (2) (3) | Parámetros de codificación (inglés)
Matroska en wikipedia (español) | MKVToolnix, herramientas de edición para matroska (inglés) | Añadir cadenas de audio o subtítulos con MKVToolnix (español)
gMKVExtractGUI (inglés) | MKVExtractGui (inglés) | Manual de extracción de cadenas de audio/vídeo/subtítulos en MKV (español)

---------------------------------------

Six Bridges to Cross (Joseph Pevney, 1955) DVDRip VOSE
Última edición por roisiano el Dom 19 Jul, 2020 10:15, editado 1 vez en total.
Florentino, fíchame.
Por 6.000 € netos mensuales te convierto en el mejor presidente de la historia.

Avatar de Usuario
janca
Mensajes: 2151
Registrado: Dom 20 Dic, 2009 09:31

Re: Six Bridges to Cross (Joseph Pevney, 1955) HD 1080p VOSE

Mensaje por janca » Dom 19 Jul, 2020 08:57

Muchas gracias Roisiano

Avatar de Usuario
Spanish Jhonny
Mensajes: 2852
Registrado: Mar 18 Sep, 2012 16:01

Re: Six Bridges to Cross (Joseph Pevney, 1955) HD 1080p VOSE

Mensaje por Spanish Jhonny » Dom 19 Jul, 2020 08:58

Muchas gracias roisiano :plas: :plas:
Un saludo

ostrata
Mensajes: 2118
Registrado: Mié 24 Mar, 2010 17:29

Re: Six Bridges to Cross (Joseph Pevney, 1955) HD 1080p VOSE

Mensaje por ostrata » Dom 19 Jul, 2020 15:57

Gracias. :)

Saludos.

Avatar de Usuario
paizoco
Mensajes: 2700
Registrado: Vie 21 Nov, 2003 01:00
Ubicación: Far West

Re: Six Bridges to Cross (Joseph Pevney, 1955) HD 1080p VOSE

Mensaje por paizoco » Lun 20 Jul, 2020 01:33

Me apunto, muchas gracias.

castleaco
Mensajes: 115
Registrado: Vie 18 Abr, 2014 10:14

Re: Six Bridges to Cross (Joseph Pevney, 1955) HD 1080p VOSE

Mensaje por castleaco » Lun 20 Jul, 2020 21:30

Gracias roisiano.
Mis aportes:
- La amenaza fantasma "versión oscura": viewtopic.php?f=1015&t=72843
- Europa: viewtopic.php?f=1015&t=13050#p898547
- 2010 odisea 2

Avatar de Usuario
cinefilototal
Mensajes: 92
Registrado: Jue 02 Mar, 2017 12:05

Re: Six Bridges to Cross (Joseph Pevney, 1955) HD 1080p VOSE

Mensaje por cinefilototal » Mar 21 Jul, 2020 16:05

¡Muchas gracias Roisiano!.

maimes
Mensajes: 240
Registrado: Mié 20 Abr, 2011 13:03

Re: Six Bridges to Cross (Joseph Pevney, 1955) HD 1080p VOSE

Mensaje por maimes » Lun 27 Jul, 2020 22:11

Muchas gracias. No conocía esta película. Paso a descubrir. Gracias y saludos.

Avatar de Usuario
drogo
Mensajes: 77
Registrado: Sab 05 Jun, 2004 02:00

Re: Six Bridges to Cross (Joseph Pevney, 1955) HD 1080p VOSE

Mensaje por drogo » Sab 01 Ago, 2020 05:29

muchas gracias

salu2

Responder