The Long Dark Hall (Reginald Beck & Anthony Bushell, 1951) HD 720p VOSE

Publica y encuentra enlaces p2p de filmes hasta 1980 en esta sección.
Responder
Avatar de Usuario
Dardo
Arrow Thrower Clown
Mensajes: 16411
Registrado: Dom 19 Oct, 2003 02:00
Ubicación: Entre Encinas y Dolomías

The Long Dark Hall (Reginald Beck & Anthony Bushell, 1951) HD 720p VOSE

Mensaje por Dardo » Mié 01 Jul, 2020 00:35

Forrest Gump, mifune (aka toshiro) , felipemarlou y hammett...


The Long Dark Hall (1951)

Imagen

IMDB

Dirección: Reginald Beck, Anthony Bushell
Guion: Nunnally Johnson
Argumento: La novela A Case to Answer (Edgar Lustgarten)
Música: Benjamin Frankel
Fotografía: Wilkie Cooper (B/W)
Productora: Cusick International Films Inc.
Reino Unido
86 min.

Reparto: Rex Harrison, Lilli Palmer, Henrietta Barry, Denis O’Dea, Ronald Simpson, Dora Sevening, Anthony Dawson, Henry B. Longhurst, Meriel Forbes, Patricia Cutts


Sinopsis:
A pesar de ser un hombre felizmente casado y con hijos, Arthur inicia una relación extramarital.
Cuando su amante aparece muerta es llevado a juicio y condenado a muerte,
hasta que el verdadero asesino vuelve a entrar en acción. (FILMAFFINITY)


Capturas:

Imagen

Imagen

Imagen

Imagen

Imagen

Imagen



Datos técnicos:

Código: Seleccionar todo

Complete name                     \The Long Dark Hall (R.Beck & A. Bushell, 1951) BDRip 720p (Eng subt).mkv
Format                                   : Matroska
Format version                           : Version 4 / Version 2
File size                                : 2.70 GiB
Duration                                 : 1h 28mn
Overall bit rate                         : 4 386 Kbps
Encoded date                             : UTC 2020-04-16 08:14:27
Writing application                      : mkvmerge v11.0.0 ('Alive') 64bit
Writing library                          : libebml v1.3.4 + libmatroska v1.4.5
DURATION                                 : 01:27:11.875000000
NUMBER_OF_FRAMES                         : 1606
NUMBER_OF_BYTES                          : 51296
_STATISTICS_WRITING_APP                  : mkvmerge v11.0.0 ('Alive') 64bit
_STATISTICS_WRITING_DATE_UTC             : 2020-04-16 08:14:27
_STATISTICS_TAGS                         : BPS DURATION NUMBER_OF_FRAMES NUMBER_OF_BYTES

Video
ID                                       : 1
Format                                   : AVC
Format/Info                              : Advanced Video Codec
Format profile                           : High@L4.1
Format settings, CABAC                   : Yes
Format settings, ReFrames                : 4 frames
Codec ID                                 : V_MPEG4/ISO/AVC
Duration                                 : 1h 28mn
Bit rate                                 : 3 851 Kbps
Width                                    : 992 pixels
Height                                   : 720 pixels
Display aspect ratio                     : 1.378
Frame rate mode                          : Constant
Frame rate                               : 24.000 fps
Color space                              : YUV
Chroma subsampling                       : 4:2:0
Bit depth                                : 8 bits
Scan type                                : Progressive
Bits/(Pixel*Frame)                       : 0.225
Stream size                              : 2.37 GiB (88%)
Writing library                          : x264 core 157 r2969 d4099dd
Encoding settings                        : cabac=1 / ref=3 / deblock=1:-1:-1 / analyse=0x3:0x113 / me=hex / subme=7 / psy=1 / psy_rd=1.00:0.15 / mixed_ref=1 / me_range=16 / chroma_me=1 / trellis=1 / 8x8dct=1 / cqm=0 / deadzone=21,11 / fast_pskip=1 / chroma_qp_offset=-3 / threads=12 / lookahead_threads=2 / sliced_threads=0 / nr=0 / decimate=1 / interlaced=0 / bluray_compat=0 / constrained_intra=0 / bframes=3 / b_pyramid=2 / b_adapt=1 / b_bias=0 / direct=1 / weightb=1 / open_gop=0 / weightp=2 / keyint=240 / keyint_min=24 / scenecut=40 / intra_refresh=0 / rc_lookahead=40 / rc=crf / mbtree=1 / crf=19.0 / qcomp=0.60 / qpmin=0 / qpmax=69 / qpstep=4 / vbv_maxrate=62500 / vbv_bufsize=78125 / crf_max=0.0 / nal_hrd=none / filler=0 / ip_ratio=1.40 / aq=1:1.00
Default                                  : Yes
Forced                                   : No

Audio
ID                                       : 2
Format                                   : AC-3
Format/Info                              : Audio Coding 3
Mode extension                           : CM (complete main)
Format settings, Endianness              : Big
Codec ID                                 : A_AC3
Duration                                 : 1h 28mn
Bit rate mode                            : Constant
Bit rate                                 : 448 Kbps
Channel(s)                               : 2 channels
Channel positions                        : Front: L R
Sampling rate                            : 48.0 KHz
Compression mode                         : Lossy
Stream size                              : 282 MiB (10%)
Language                                 : English
Default                                  : Yes
Forced                                   : No

Text
ID                                       : 3
Format                                   : UTF-8
Codec ID                                 : S_TEXT/UTF8
Codec ID/Info                            : UTF-8 Plain Text
Title                                    : Eng subt
Language                                 : English
Default                                  : Yes
Forced                                   : No

Menu
00:00:00.000                             : en:Chapter 01
00:10:29.375                             : en:Chapter 02
00:16:01.458                             : en:Chapter 03
00:21:03.417                             : en:Chapter 04
00:29:16.708                             : en:Chapter 05
00:33:59.250                             : en:Chapter 06
00:40:45.917                             : en:Chapter 07
00:49:25.375                             : en:Chapter 08
00:54:54.542                             : en:Chapter 09
01:02:32.167                             : en:Chapter 10
01:07:56.500                             : en:Chapter 11
01:18:18.375                             : en:Chapter 12

Imagen


Ripeo

:arrow: The Long Dark Hall (Reginald Beck & Anthony Bushell, 1951) BDRip 720p VOSE
English subtitles dentro contenedor archivo

:arrow: English subs to the mule

hammett escribió:
Mar 30 Jun, 2020 08:22
Añadidos los subtítulos castellanos y el enlace de descarga directa de la película al mensaje inicial.

Una entretenida película bastante bien contada, pese a su apresurado final.


Subtítulos castellanos en descarga directa: https://www.subdivx.com/X6XNjAwMTE3X-th ... -1951.html

Enlace de descarga directa de la película
https://mega.nz/file/2u5HAQzI#095Io8f5F ... KciRd6IbEw
Válido hasta el 07/07/2020

felipemarlou escribió:
Jue 16 Abr, 2020 10:39
Gracias a Forrest Gump por traer la fuente original de cinematik, y a Mifune por el ripeo de la misma. He extraído los English subtis para sordos y los he incorporado en el contenedor matroska, dado que tienen "mejor" tipografía que los que vienen por defecto.

castleaco
Mensajes: 87
Registrado: Vie 18 Abr, 2014 10:14

Re: The Long Dark Hall (Reginald Beck & Anthony Bushell, 1951) HD 720p VOSE

Mensaje por castleaco » Mié 01 Jul, 2020 00:50

Muchas gracias a TODOS!
Mis aportes:
- La amenaza fantasma "versión oscura": viewtopic.php?f=1015&t=72843
- Europa: viewtopic.php?f=1015&t=13050#p898547
- 2010 odisea 2

ostrata
Mensajes: 2094
Registrado: Mié 24 Mar, 2010 17:29

Re: The Long Dark Hall (Reginald Beck & Anthony Bushell, 1951) HD 720p VOSE

Mensaje por ostrata » Mié 01 Jul, 2020 06:56

Gracias. :)

Saludos.

Avatar de Usuario
miguel_HammerFilms
Mensajes: 1265
Registrado: Vie 18 May, 2007 11:23

Re: The Long Dark Hall (Reginald Beck & Anthony Bushell, 1951) HD 720p VOSE

Mensaje por miguel_HammerFilms » Mié 01 Jul, 2020 18:07

No conozco mucho a estos chicos, pero gracias :)
Imagen

Avatar de Usuario
Dardo
Arrow Thrower Clown
Mensajes: 16411
Registrado: Dom 19 Oct, 2003 02:00
Ubicación: Entre Encinas y Dolomías

Re: The Long Dark Hall (Reginald Beck & Anthony Bushell, 1951) HD 720p VOSE

Mensaje por Dardo » Mié 01 Jul, 2020 19:22

miguel_HammerFilms escribió:
Mié 01 Jul, 2020 18:07
No conozco mucho a estos chicos, pero gracias :)
Como Agente de la Condicional, les dejo a veces en los Talleres hacer alguna cosita de estas, pero rápido se me desmadran y los mando "al hoyo" una temporada. No se les puede dejar mucho tiempo juntos :mrgreen:

Avatar de Usuario
carrido
Mensajes: 410
Registrado: Mié 19 Feb, 2014 15:58
Ubicación: Freedonia

Re: The Long Dark Hall (Reginald Beck & Anthony Bushell, 1951) HD 720p VOSE

Mensaje por carrido » Mié 01 Jul, 2020 20:10

Muchísimas gracias Dardo y Cia;por esta película del Reino unido de los años 50.

:plas: :plas: :plas: :plas: :plas:
Carrido

Avatar de Usuario
pcero
Aprendiz de todo
Mensajes: 661
Registrado: Lun 15 Nov, 2004 01:00

Re: The Long Dark Hall (Reginald Beck & Anthony Bushell, 1951) HD 720p VOSE

Mensaje por pcero » Jue 02 Jul, 2020 08:51

Muchas gracias

Avatar de Usuario
WalterBurns
Mensajes: 1155
Registrado: Dom 11 Oct, 2015 15:08

Re: The Long Dark Hall (Reginald Beck & Anthony Bushell, 1951) HD 720p VOSE

Mensaje por WalterBurns » Jue 02 Jul, 2020 22:45

Gracias por compartirla.

Responder