Abandoned (Joseph M. Newman, 1949) HD 1080p VO SE

Publica y encuentra enlaces p2p de filmes hasta 1980 en esta sección.
Responder
santi
Mensajes: 1047
Registrado: Vie 17 Ene, 2003 01:00

Abandoned (Joseph M. Newman, 1949) HD 1080p VO SE

Mensaje por santi » Mié 17 Jun, 2020 16:53

Abandoned (Joseph M. Newman, 1949)

Imagen
Imagen
Imagen
Filmaffinity | IMDb

Guion: Irwin Gielgud, William Bowers
Fotografía: William H. Daniels (B&W)
Reparto: Dennis O'Keefe, Gale Storm, Marjorie Rambeau, Raymond Burr, Will Kuluva, Jeff Chandler, Meg Randall, Jeanette Nolan, David Clarke, Mike Mazurki, Sid Tomack, William Frambes, Perc Launders, Steve Darrell, Clifton Young
Productora: Universal International Pictures (UI)
Género: Drama | Cine negro | Crimen

Sinopsis:
La hermana de una mujer desaparece en Los Angeles. La joven se desplaza a la ciudad para investigar, y recibe la ayuda de un periodista especializado en casos criminales. La investigación les conduce hasta un turbio detective y una red de tráfico de bebés. (FILMAFFINITY)



Gracias a quienes compartieron el DVD.
Spoiler: mostrar
Dadas las (extrañas) circunstancias en las que actualmente parecemos movernos en el mundo p2p (en especial, en lo relativo a los trackers privados), de aquí en adelante haré "agradecimientos genéricos" a quienes compartieron la fuente original y no enlazaré a dicha fuente original en mis posts.
Disculpen las molestias
Detalles de la edición


------------------------------

Configuración del ripeo (vídeo / audio):

x264:
"C:\x264.exe" --preset veryslow --tune film --crf 17.8 --qcomp 0.62 --deblock -2:-2 --no-chroma-me --level 4.1 --output "C:\mi_ripeo.mkv" "C:\mi_script.avs"


QAAC (para AAC):
qaac -V 127 --ignorelength --adts --no-delay -o

------------------------------


Imagen
Imagen
Imagen
Imagen
Imagen
Imagen
Imagen

Código: Seleccionar todo

 
Format : Matroska 
Format version : Version 4 
File size : 2.97 GiB 
Duration : 1 h 19 min 
Overall bit rate : 5 387 kb/s 
Writing application : mkvmerge v47.0.0 ('Black Flag') 64-bit 
Writing library : libebml v1.3.10 + libmatroska v1.5.2 

Video 
ID : 1 
Format : AVC 
Format/Info : Advanced Video Codec 
Format profile : High@L4.1 
Format settings : CABAC / 5 Ref Frames 
Format settings, CABAC : Yes 
Format settings, Reference frames : 5 frames 
Codec ID : V_MPEG4/ISO/AVC 
Duration : 1 h 19 min 
Bit rate : 5 247 kb/s 
Width : 1 464 pixels 
Height : 1 080 pixels 
Display aspect ratio : 4:3 
Frame rate mode : Constant 
Frame rate : 23.976 (24000/1001) FPS 
Color space : YUV 
Chroma subsampling : 4:2:0 
Bit depth : 8 bits 
Scan type : Progressive 
Bits/(Pixel*Frame) : 0.138 
Stream size : 2.90 GiB (97%) 
Writing library : x264 core 160 r3000 33f9e14 
Encoding settings : cabac=1 / ref=5 / deblock=1:-2:-2 / analyse=0x3:0x133 / me=umh / subme=10 / psy=1 / psy_rd=1.00:0.15 / mixed_ref=1 / me_range=24 / chroma_me=0 / trellis=2 / 8x8dct=1 / cqm=0 / deadzone=21,11 / fast_pskip=1 / chroma_qp_offset=-3 / threads=6 / lookahead_threads=1 / sliced_threads=0 / nr=0 / decimate=1 / interlaced=0 / bluray_compat=0 / constrained_intra=0 / bframes=8 / b_pyramid=2 / b_adapt=2 / b_bias=0 / direct=3 / weightb=1 / open_gop=0 / weightp=2 / keyint=250 / keyint_min=23 / scenecut=40 / intra_refresh=0 / rc_lookahead=60 / rc=crf / mbtree=1 / crf=17.8 / qcomp=0.62 / qpmin=0 / qpmax=69 / qpstep=4 / ip_ratio=1.40 / aq=1:1.00 
Language : English 
Default : Yes 
Forced : No 

Audio 
ID : 2 
Format : AAC LC 
Format/Info : Advanced Audio Codec Low Complexity 
Codec ID : A_AAC-2 
Duration : 1 h 19 min 
Bit rate : 132 kb/s 
Channel(s) : 2 channels 
Channel layout : L R 
Sampling rate : 48.0 kHz 
Frame rate : 46.875 FPS (1024 SPF) 
Compression mode : Lossy 
Stream size : 73.7 MiB (2%) 
Language : English 
Writing library : qaac 2.68, CoreAudioToolbox 7.10.9.0
Encoding settings : qaac -V 127 --ignorelength --adts --no-delay -o
VBR min./avg./max. : 4 / 132 / 320 Kb/s. 
Duration.......... : 4742.763 sec., (1h. 19m. 2.763s.)
Default : Yes 
Forced : No 

Text #1 
ID : 3 
Format : UTF-8 
Codec ID : S_TEXT/UTF8 
Codec ID/Info : UTF-8 Plain Text 
Duration : 1 h 19 min 
Bit rate : 89 b/s 
Count of elements : 1361 
Stream size : 52.1 KiB (0%) 
Language : Spanish 
Default : Yes 
Forced : No 

Text #2 
ID : 4 
Format : UTF-8 
Codec ID : S_TEXT/UTF8 
Codec ID/Info : UTF-8 Plain Text 
Duration : 1 h 17 min 
Bit rate : 84 b/s 
Count of elements : 1355 
Stream size : 48.3 KiB (0%) 
Language : English 
Default : No 
Forced : No 

Text #3 
ID : 5 
Format : UTF-8 
Codec ID : S_TEXT/UTF8 
Codec ID/Info : UTF-8 Plain Text 
Duration : 1 h 17 min 
Bit rate : 95 b/s 
Count of elements : 1491 
Stream size : 54.1 KiB (0%) 
Language : French 
Default : No 
Forced : No 

Text #4 
ID : 6 
Format : UTF-8 
Codec ID : S_TEXT/UTF8 
Codec ID/Info : UTF-8 Plain Text 
Duration : 1 h 17 min 
Bit rate : 85 b/s 
Count of elements : 1361 
Stream size : 48.4 KiB (0%) 
Title : English SDH 
Language : English 
Default : No 
Forced : No 

Text #5 
ID : 7 
Format : VobSub 
Muxing mode : zlib 
Codec ID : S_VOBSUB 
Codec ID/Info : Picture based subtitle format used on DVDs 
Duration : 1 h 17 min 
Bit rate : 11.1 kb/s 
Count of elements : 1502 
Stream size : 6.14 MiB (0%) 
Title : English Vobsubs 
Language : English 
Default : No 
Forced : No 

Menu 
00:00:00.000 : :Cpt. 01 
00:09:28.119 : :Cpt. 02 
00:16:33.878 : :Cpt. 03 
00:25:58.275 : :Cpt. 04 
00:34:35.625 : :Cpt. 05 
00:42:03.030 : :Cpt. 06 
00:50:07.264 : :Cpt. 07 
01:01:22.939 : :Cpt. 08 
01:11:31.047 : :Cpt. 09


Spoiler: mostrar

ed2k://|file|Abandoned.1949.BDRip.x264.1080p.AAC.mkv|3193776261|63F0B49BD492EFFDC52173AF4915778F|h=N4DPHOFVDUFU3AEQBPPYBFSA35BWFFD3|/

ed2k://|file|Abandoned.1949.BDRip.x264.1080p.AAC.zip|157089|D9933C8263CE73F80E6877FBF1BAF316|h=ESW4HCIVSNUYEE77K6O2WC6X5WHKXAU5|/



:arrow: BDRip V.O. 1080p, con subtítulos en español, inglés y francés en el contenedor MKV (2.97 GBs)

:arrow: Subtítulos por separado
, por si alguien los necesita para... (153 KBs)


Los subtítulos en español son los de hammett (supongo que nadie se lo esperaba :mrgreen: ; muchas gracias, una vez más), levemente corregidos y fácilmente resincronizados para este ripeo.


No es la mejor edición de BD de la historia... pero no hay nada mejor disponible.



:arrow: Cómo buscar archivos en emule. Necesario para buscar lo anterior...





----------------------------------------------------


Imagen Imagen

Última versión del codec x264 (inglés) | Cómo crear BDRips MKV/x264 con UsEac3To + MeGui (español)
Manual de ripeo con x264 en línea de comandos (español) (1) (2) (3) | Parámetros de codificación (inglés)
Matroska en wikipedia (español) | MKVToolnix, herramientas de edición para matroska (inglés) | Añadir cadenas de audio o subtítulos con MKVToolnix (español)
gMKVExtractGUI (inglés) | MKVExtractGui (inglés) | Manual de extracción de cadenas de audio/vídeo/subtítulos en MKV (español)
-----------------------------------------------------------------------------------------------
Nota: Este que postea solo lleva la furgoneta de reparto del habitual de la plantilla. Cumplo encargos.

ostrata
Mensajes: 2118
Registrado: Mié 24 Mar, 2010 17:29

Re: Abandoned (Joseph M. Newman, 1949) HD 1080p VO SE

Mensaje por ostrata » Mié 17 Jun, 2020 19:23

Muchas gracias a todos. :)

Saludos.

Avatar de Usuario
carrido
Mensajes: 410
Registrado: Mié 19 Feb, 2014 15:58
Ubicación: Freedonia

Re: Abandoned (Joseph M. Newman, 1949) HD 1080p VO SE

Mensaje por carrido » Mié 17 Jun, 2020 19:46

Muchísimas gracias santi;por esta film Noir de finales de los 40.

:plas: :plas: :plas: :plas: :plas:
Carrido

Avatar de Usuario
Lucio49
Mensajes: 123
Registrado: Mié 04 Feb, 2015 16:59
Ubicación: Brazil

Re: Abandoned (Joseph M. Newman, 1949) HD 1080p VO SE

Mensaje por Lucio49 » Mié 17 Jun, 2020 21:52

Muchas gracias ,Santi.
:plas: :plas: :P

Avatar de Usuario
Spanish Jhonny
Mensajes: 2852
Registrado: Mar 18 Sep, 2012 16:01

Re: Abandoned (Joseph M. Newman, 1949) HD 1080p VO SE

Mensaje por Spanish Jhonny » Jue 18 Jun, 2020 09:18

Totalmente desconocido todo :sonrisa:
Muchas gracias ;) :plas: :plas:

Avatar de Usuario
elmajete
Mensajes: 1002
Registrado: Vie 18 May, 2007 22:05

Re: Abandoned (Joseph M. Newman, 1949) HD 1080p VO SE

Mensaje por elmajete » Jue 18 Jun, 2020 12:05

Muchas gracias Santi, esta película no la tenia vista, así que vamos a por ella :plas: :plas: :plas:

Avatar de Usuario
WalterBurns
Mensajes: 1156
Registrado: Dom 11 Oct, 2015 15:08

Re: Abandoned (Joseph M. Newman, 1949) HD 1080p VO SE

Mensaje por WalterBurns » Jue 18 Jun, 2020 13:27

Gracias por compartirla.

Avatar de Usuario
paizoco
Mensajes: 2700
Registrado: Vie 21 Nov, 2003 01:00
Ubicación: Far West

Re: Abandoned (Joseph M. Newman, 1949) HD 1080p VO SE

Mensaje por paizoco » Lun 22 Jun, 2020 15:41

Me apunto, muchas gracias.

maimes
Mensajes: 240
Registrado: Mié 20 Abr, 2011 13:03

Re: Abandoned (Joseph M. Newman, 1949) HD 1080p VO SE

Mensaje por maimes » Mar 28 Jul, 2020 19:28

Muchas gracias por otro descubrimiento. Saludos.

Avatar de Usuario
drogo
Mensajes: 77
Registrado: Sab 05 Jun, 2004 02:00

Re: Abandoned (Joseph M. Newman, 1949) HD 1080p VO SE

Mensaje por drogo » Sab 01 Ago, 2020 04:25

gracias
salu2

Responder