Looking for Richard (Al Pacino, 1996) HD 720p VOSE

Espacio destinado a enlaces de obras cinematográficas de caracter documental.
Responder
Avatar de Usuario
DMMD
Mensajes: 1721
Registrado: Lun 27 Feb, 2012 14:16

Looking for Richard (Al Pacino, 1996) HD 720p VOSE

Mensaje por DMMD » Lun 16 Mar, 2020 17:19

Imagen


Imagen



Looking for Richard (En busca de Ricardo III)

Título original Looking for Richard
Año 1996
Duración 112 min.
País Imagen
Dirección Al Pacino
Guion Al Pacino, Frederic Kimball (Teatro: William Shakespeare)
Música Howard Shore
Fotografía Robert Leacock

Reparto
Al Pacino, Alec Baldwin, Kevin Spacey, Winona Ryder, Estelle Parsons, Penelope Allen, Kevin Conway, Harris Yulin, Gordon MacDonald, Madison Arnold, Vincent Angell, Timmy Prairie, Larry Bryggman, Phil Parosili, Bruce McVittie, Aidan Quinn

Productora Fox Searchlight Pictures / JAM production
Género Documental. Drama | Teatro

Sinopsis
Versión cinematográfica del drama de William Shakespeare "Ricardo III", un análisis sobre el poder, la lujuria y la traición. A medida que ensaya con los actores, Al Pacino reflexiona sobre el dramaturgo inglés, sobre la contemporaneidad de sus textos y sobre la dificultad para hacer sus obras más accesibles al gran público. (FILMAFFINITY)


Premios
1996: Premios Independent Spirit: Nominada al Truer Than Fiction Award
1996: Sindicato de Directores (DGA): Mejor director / Documental


Críticas
Pacino se pone detrás de la cámara para regalarnos una sorprendente y particular adaptación del inmortal texto de Shakespeare. Ejercicio casi experimental, se trata de una magnífica y potente mezcla de documental y ficción, vibrante y lleno de fuerza. Una joya que rebosa puro cine, puro teatro... y mucho talento.
Pablo Kurt: FilmAffinity
"Tan divertida como gratificante"
Javier Rioyo: Cinemanía
"Documental que muestra la vida de Ricardo III, incluso la obra de Shakespeare. Excelentes interpretaciones para una curiosidad de Hollywood. Excelente"
Fernando Morales: Diario El País

KapD Lloret de Mar (España)

Looking for Shakespeare
20 de octubre de 2007

Como es bien sabido, Shakespeare siempre ha sido y siempre será una recurrente fuente - acaso inagotable - para el cine, puesto que sus obras contienen sexo (implícito en origen dramático pero pronto explicitado en adaptaciones cienamtográficas como la curiosa "Titus") y sangre. No obstante, no nos encontramos ante una película en que estos elementos tan comerciales hayan sido explotados. No. Más bien, esta joya cinéfila, destila amor a Shakespeare por todos lados, en cada fotograma, en cada minuto del metraje. Es una carta de amor a Shakespeare firmada o filmada, con cariño y admiración, por Al Pacino (sí, el mismo, el bailarín ciego). Aquí lo que prima es que el espectador sienta a Shakespeare palpitando en su interior, latente, corriendo por sus venas, identificándose con sus sentimientos.

Debido a los objetivos de esta magna obra, hubiera sido fácil (incluso lógico) que Pacino tomara la posición del resabido profesor que trata de enseñar a sus estúpidos e inferiores alumnos. No obstante, en un brillante ejercicio de humildad (¿quién no se siente minúsculo al dialogar con Shakespeare, REY del sentimiento?), Pacino se pone en un plano de igualdad con el espectador demostrando también su incondicional admiración por el bardo, y trata al espectador con el cariño de una madre...sólo que esta madre, por la noche, al venir a arroparnos, nos lee historias de Shakespeare.

La palícula empieza y acaba (a modo de "leit motiv" shakespeariano) con el famoso monólogo de Próspero en la obra "La Tempestad", que de alguna manera le sirve a Pacino para arrastrarnos a una reflexión de la obra de Ricardo III, o todas las obras de William y, por ende, a una reflexión sobre la vida. En definitiva, esta obra no viola a Shakespeare (a diferencia de muchas realizadas sobre él o sobre Jane Austen), sino que nos lo muestra de forma sencilla para librarnos de posibles prejuicios.

Esta película no adapta Ricardo III, como ya se ha podido deducir, sino que se encarga de enseñarnos el proceso de entender la obra de Shakespeare, proceso por el que pasan los actores. De hecho, esta obra, tal vez, sea una especie de muestra de los entresijos de la caracterización de un personaje que ha de ir depurando cada actor. Prueba de ello es la repetición de escenas, mostrándose un juego originalísimo de muñecas rusas en que gradualmente se pasa de una interpretación tosca a una fina y emocionante interpretación de Pacino en que vemos la esencia misma de la interpretación, en la que palpamos la esencia misma del sentimiento. El resto de actores (actorazos), aunque en segundo plano, también hacen un loable papel.

En fin, no me extiendo más; creo que sobra comentar nada respecto de la obra Ricardo III, ya que es bien conocido que versa sobre mentiras, ambiciones, conspiración...y amor, amor floreciente y amor marchito, todo esto contado con la innovación de un artesano del cine.

Imagen

Código: Seleccionar todo

General
Unique ID                                : 147119521126636415316540798862776153003 (0x6EAE3069C94734CAD37D9D223F8533AB)
Complete name                            : D:\Incoming\1996-Looking.for.Richard.WEBRip.720p.AC3.(DMMD).mkv
Format                                   : Matroska
Format version                           : Version 4
File size                                : 2.94 GiB
Duration                                 : 1 h 52 min
Overall bit rate                         : 3 759 kb/s
Movie name                               : 1996-Looking.for.Richard.WEBRip.720p.AC3.(DMMD)
Encoded date                             : UTC 2020-03-15 22:22:33
Writing application                      : mkvmerge v44.0.0 ('Domino') 64-bit
Writing library                          : libebml v1.3.10 + libmatroska v1.5.2

Video
ID                                       : 1
Format                                   : AVC
Format/Info                              : Advanced Video Codec
Format profile                           : High@L4.1
Format settings                          : CABAC / 9 Ref Frames
Format settings, CABAC                   : Yes
Format settings, RefFrames               : 9 frames
Codec ID                                 : V_MPEG4/ISO/AVC
Duration                                 : 1 h 52 min
Bit rate                                 : 3 533 kb/s
Width                                    : 1 280 pixels
Height                                   : 696 pixels
Display aspect ratio                     : 1.85:1
Frame rate mode                          : Constant
Frame rate                               : 23.976 (24000/1001) FPS
Color space                              : YUV
Chroma subsampling                       : 4:2:0
Bit depth                                : 8 bits
Scan type                                : Progressive
Bits/(Pixel*Frame)                       : 0.165
Stream size                              : 2.77 GiB (94%)
Writing library                          : x264 core 152 r2851kMod ba24899
Encoding settings                        : cabac=1 / ref=9 / deblock=1:-3:-3 / analyse=0x3:0x133 / me=umh / subme=11 / psy=1 / fade_compensate=0.00 / psy_rd=0.90:0.00 / mixed_ref=1 / me_range=24 / chroma_me=1 / trellis=2 / 8x8dct=1 / cqm=0 / deadzone=21,11 / fast_pskip=0 / chroma_qp_offset=-2 / threads=6 / lookahead_threads=1 / sliced_threads=0 / nr=0 / decimate=0 / interlaced=0 / bluray_compat=0 / constrained_intra=0 / bframes=8 / b_pyramid=2 / b_adapt=2 / b_bias=0 / direct=3 / weightb=1 / open_gop=0 / weightp=2 / keyint=250 / keyint_min=23 / scenecut=40 / intra_refresh=0 / rc_lookahead=60 / rc=crf / mbtree=1 / crf=19.5000 / qcomp=0.60 / qpmin=0 / qpmax=69 / qpstep=4 / ip_ratio=1.40 / aq=1:0.50
Language                                 : English
Default                                  : Yes
Forced                                   : No

Audio
ID                                       : 2
Format                                   : E-AC-3
Format/Info                              : Enhanced AC-3
Commercial name                          : Dolby Digital Plus
Codec ID                                 : A_EAC3
Duration                                 : 1 h 52 min
Bit rate mode                            : Constant
Bit rate                                 : 224 kb/s
Channel(s)                               : 2 channels
Channel layout                           : L R
Sampling rate                            : 48.0 kHz
Frame rate                               : 31.250 FPS (1536 SPF)
Compression mode                         : Lossy
Stream size                              : 180 MiB (6%)
Language                                 : English
Service kind                             : Complete Main
Default                                  : Yes
Forced                                   : No

Text #1
ID                                       : 3
Format                                   : UTF-8
Codec ID                                 : S_TEXT/UTF8
Codec ID/Info                            : UTF-8 Plain Text
Duration                                 : 1 h 51 min
Bit rate                                 : 75 b/s
Count of elements                        : 1639
Stream size                              : 61.9 KiB (0%)
Title                                    : Dvd
Language                                 : Spanish
Default                                  : No
Forced                                   : No

Text #2
ID                                       : 4
Format                                   : UTF-8
Codec ID                                 : S_TEXT/UTF8
Codec ID/Info                            : UTF-8 Plain Text
Duration                                 : 1 h 50 min
Bit rate                                 : 87 b/s
Count of elements                        : 1752
Stream size                              : 70.4 KiB (0%)
Language                                 : English
Default                                  : No
Forced                                   : No

Text #3
ID                                       : 5
Format                                   : UTF-8
Codec ID                                 : S_TEXT/UTF8
Codec ID/Info                            : UTF-8 Plain Text
Duration                                 : 1 h 51 min
Bit rate                                 : 81 b/s
Count of elements                        : 1664
Stream size                              : 66.9 KiB (0%)
Title                                    : Dvd
Language                                 : English
Default                                  : No
Forced                                   : No

Menu
00:00:00.000                             : :Chapter 1
00:04:42.699                             : :Chapter 2
00:05:47.013                             : :Chapter 3
00:09:44.917                             : :Chapter 4
00:12:00.094                             : :Chapter 5
00:17:50.444                             : :Chapter 6
00:19:10.482                             : :Chapter 7
00:21:48.432                             : :Chapter 8
00:24:41.688                             : :Chapter 9
00:29:11.291                             : :Chapter 10
00:34:21.267                             : :Chapter 11
00:37:04.472                             : :Chapter 12
00:49:53.281                             : :Chapter 13
01:01:10.792                             : :Chapter 14
01:06:12.551                             : :Chapter 15
01:07:25.624                             : :Chapter 16
01:08:48.290                             : :Chapter 17
01:16:34.798                             : :Chapter 18
01:20:22.776                             : :Chapter 19
01:27:52.934                             : :Chapter 20
01:29:58.434                             : :Chapter 21
01:33:13.588                             : :Chapter 22
01:38:32.781                             : :Chapter 23
01:46:06.360                             : :Chapter 24

Vídeo:

WEBRip cercano al Dvd Ntsc en cuanto tonalidades aunque con mayor definición y nitidez con un ligero retoque del Aspect Ratio, por su parte el Dvd (pal) tonalidades mas frías y diferente encuadre.



WEBRip 720p Vs Dvd (Ntsc) Vs Dvd (Pal)

Imagen
Imagen
Imagen


Imagen
Imagen
Imagen


Audio y Sub:

Audio y Sub del propio WEBRip, sub añadidos del Dvd (pal) tanto castellano como ingles.




CAPTURAS

Imagen
Imagen
Imagen
Imagen
Imagen
Imagen
Imagen
Imagen

Enlaces de descarga

Imagen


1996-Looking.for.Richard.WEBRip.720p.AC3.(DMMD).mkv

Avatar de Usuario
Spanish Jhonny
Mensajes: 2827
Registrado: Mar 18 Sep, 2012 16:01

Re: Looking for Richard (Al Pacino, 1996) HD 720p VOSE

Mensaje por Spanish Jhonny » Mar 17 Mar, 2020 09:11

Interesante publicación DMMD
Muchas gracias :plas: :plas: :plas:

Avatar de Usuario
Dardo
Arrow Thrower Clown
Mensajes: 16411
Registrado: Dom 19 Oct, 2003 02:00
Ubicación: Entre Encinas y Dolomías

Re: Looking for Richard (Al Pacino, 1996) HD 720p VOSE

Mensaje por Dardo » Mar 17 Mar, 2020 10:22

Súper interesante.

Me suena que ver lo he visto pero reconozco que lo tenía olvidado del todo.

Siempre es bueno verte ripear querido DMMD :sonrisa:

ostrata
Mensajes: 2090
Registrado: Mié 24 Mar, 2010 17:29

Re: Looking for Richard (Al Pacino, 1996) HD 720p VOSE

Mensaje por ostrata » Mar 17 Mar, 2020 16:22

Gracias. :)

Saludos.

Responder