Each Dawn I Die (William Keighley, 1939) HD 720p Dual SE

Publica y encuentra enlaces p2p de filmes hasta 1980 en esta sección.
Responder
Avatar de Usuario
DMMD
Mensajes: 1673
Registrado: Lun 27 Feb, 2012 14:16

Each Dawn I Die (William Keighley, 1939) HD 720p Dual SE

Mensaje por DMMD » Dom 14 Abr, 2019 19:05

Imagen



Imagen



Muero cada amanecer


Título original Each Dawn I Die
Año 1939
Duración 92 min.
País Imagen
Dirección William Keighley
Guion Norman Reilly Raine, Warren Duff (Novela: Jerome Odlum)
Música Max Steiner
Fotografía Arthur Edeson (B&W)
Reparto
James Cagney, George Raft, Jane Bryan, George Bancroft, Max 'Slapsie Maxie' Rosenbloom, Stanley Ridges, Alan Baxter, Victor Jory, John Wray, Edward Pawley, Willard Robertson, Emma Dunn, Paul Hurst, Louis Jean Heydt, Joe Downing, Thurston Hall, William B. Davidson, Clay Clement, Charles Trowbridge, Harry Cording

Productora Warner Bros. Pictures
Género Drama. Thriller. Cine negro | Drama carcelario
Sinopsis
Aunque inocente, el reportero Frank Ross es declarado culpable de asesinato y es enviado a la cárcel. Mientras sus amigos del periódico tratan de averiguar quien lo engañó, Frank se va endureciendo por la vida en prisión y su optimismo se convierte en amargura... (FILMAFFINITY)



-------------------------------Vídeo: --------------------------------

Encode partiendo de una emisión televisiva 1008p (Tcm)

Código: Seleccionar todo

General
Unique ID                                : 63259701580765737213564355319966201749 (0x2F9760173F8B891E1431EEE39383F795)
Complete name                            : D:\Incoming\1939-Each.Dawn.I.Die.HDTVRip.720p.AC3.[DMMD].mkv
Format                                   : Matroska
Format version                           : Version 4
File size                                : 3.51 GiB
Duration                                 : 1 h 31 min
Overall bit rate                         : 5 486 kb/s
Movie name                               : 1939-Each.Dawn.I.Die.HDTVRip.720p.AC3.[DMMD]
Encoded date                             : UTC 2019-04-14 16:42:57
Writing application                      : mkvmerge v33.0.0 ('A Little Bit of Madness') 64-bit
Writing library                          : libebml v1.3.7 + libmatroska v1.5.0
Attachments                              : Muero_cada_amanecer-674738498-large.jpg / each_dawn_i_die-645813361-large.jpg

Video
ID                                       : 1
Format                                   : AVC
Format/Info                              : Advanced Video Codec
Format profile                           : High@L4.1
Format settings                          : CABAC / 11 Ref Frames
Format settings, CABAC                   : Yes
Format settings, RefFrames               : 11 frames
Codec ID                                 : V_MPEG4/ISO/AVC
Duration                                 : 1 h 31 min
Bit rate                                 : 4 845 kb/s
Width                                    : 984 pixels
Height                                   : 720 pixels
Display aspect ratio                     : 4:3
Frame rate mode                          : Constant
Frame rate                               : 23.976 (24000/1001) FPS
Color space                              : YUV
Chroma subsampling                       : 4:2:0
Bit depth                                : 8 bits
Scan type                                : Progressive
Bits/(Pixel*Frame)                       : 0.285
Stream size                              : 3.10 GiB (88%)
Writing library                          : x264 core 152 r2851kMod ba24899
Encoding settings                        : cabac=1 / ref=11 / deblock=1:-3:-3 / analyse=0x3:0x133 / me=umh / subme=11 / psy=1 / fade_compensate=0.00 / psy_rd=0.90:0.00 / mixed_ref=1 / me_range=64 / chroma_me=0 / trellis=2 / 8x8dct=1 / cqm=0 / deadzone=21,11 / fast_pskip=0 / chroma_qp_offset=-2 / threads=6 / lookahead_threads=1 / sliced_threads=0 / nr=0 / decimate=0 / interlaced=0 / bluray_compat=0 / constrained_intra=0 / bframes=8 / b_pyramid=2 / b_adapt=2 / b_bias=0 / direct=3 / weightb=1 / open_gop=0 / weightp=2 / keyint=250 / keyint_min=23 / scenecut=40 / intra_refresh=0 / rc=crf / mbtree=0 / crf=19.5000 / qcomp=0.60 / qpmin=0 / qpmax=69 / qpstep=4 / ip_ratio=1.40 / pb_ratio=1.30 / aq=3:0.50
Language                                 : English
Default                                  : Yes
Forced                                   : No

Audio #1
ID                                       : 2
Format                                   : AC-3
Format/Info                              : Audio Coding 3
Commercial name                          : Dolby Digital
Codec ID                                 : A_AC3
Duration                                 : 1 h 31 min
Bit rate mode                            : Constant
Bit rate                                 : 448 kb/s
Channel(s)                               : 6 channels
Channel layout                           : L R C LFE Ls Rs
Sampling rate                            : 48.0 kHz
Frame rate                               : 31.250 FPS (1536 SPF)
Bit depth                                : 16 bits
Compression mode                         : Lossy
Stream size                              : 294 MiB (8%)
Language                                 : English
Service kind                             : Complete Main
Default                                  : Yes
Forced                                   : No

Audio #2
ID                                       : 3
Format                                   : AC-3
Format/Info                              : Audio Coding 3
Commercial name                          : Dolby Digital
Codec ID                                 : A_AC3
Duration                                 : 1 h 31 min
Bit rate mode                            : Constant
Bit rate                                 : 192 kb/s
Channel(s)                               : 2 channels
Channel layout                           : L R
Sampling rate                            : 48.0 kHz
Frame rate                               : 31.250 FPS (1536 SPF)
Bit depth                                : 16 bits
Compression mode                         : Lossy
Stream size                              : 126 MiB (3%)
Language                                 : Spanish
Service kind                             : Complete Main
Default                                  : No
Forced                                   : No

Text #1
ID                                       : 4
Format                                   : UTF-8
Codec ID                                 : S_TEXT/UTF8
Codec ID/Info                            : UTF-8 Plain Text
Duration                                 : 1 h 30 min
Bit rate                                 : 63 b/s
Count of elements                        : 1111
Stream size                              : 41.8 KiB (0%)
Language                                 : Spanish
Default                                  : No
Forced                                   : No

Text #2
ID                                       : 5
Format                                   : UTF-8
Codec ID                                 : S_TEXT/UTF8
Codec ID/Info                            : UTF-8 Plain Text
Duration                                 : 1 h 31 min
Bit rate                                 : 77 b/s
Count of elements                        : 1692
Stream size                              : 52.0 KiB (0%)
Language                                 : English
Default                                  : No
Forced                                   : No

Menu
00:00:00.000                             : :Chapter 1
00:00:52.000                             : :Chapter 2
00:04:25.367                             : :Chapter 3
00:09:51.533                             : :Chapter 4
00:12:53.200                             : :Chapter 5
00:16:24.366                             : :Chapter 6
00:20:21.333                             : :Chapter 7
00:23:09.533                             : :Chapter 8
00:26:45.533                             : :Chapter 9
00:29:34.500                             : :Chapter 10
00:32:59.334                             : :Chapter 11
00:38:11.667                             : :Chapter 12
00:41:48.200                             : :Chapter 13
00:45:55.700                             : :Chapter 14
00:49:28.534                             : :Chapter 15
00:54:04.667                             : :Chapter 16
00:57:10.833                             : :Chapter 17
01:00:28.366                             : :Chapter 18
01:03:33.666                             : :Chapter 19
01:08:38.166                             : :Chapter 20
01:11:38.166                             : :Chapter 21
01:13:33.199                             : :Chapter 22
01:17:59.999                             : :Chapter 23
01:21:44.699                             : :Chapter 24
01:27:02.332                             : :Chapter 25
01:29:18.532                             : :Chapter 26
01:30:53.199                             : :Chapter 27


HDTVRip 720p Vs Dvd (Ntsc)

Imagen
Imagen


-----------------------------------------------Audios y subtítulos---------------------------------------------

- Para la V.O. de la propia emisión televisiva.

- Para la sincro del doblaje el audio y sub del propio Dvd (Pal)



Imagen



CAPTURAS

Imagen
Imagen
Imagen
Imagen
Imagen
Imagen
Imagen
Imagen


Enlaces de descarga

Imagen


1939-Each.Dawn.I.Die.HDTVRip.720p.AC3.DMMD.mkv


ostrata
Mensajes: 1801
Registrado: Mié 24 Mar, 2010 17:29

Re: Each Dawn I Die (William Keighley, 1939) HD 720p Dual SE

Mensaje por ostrata » Dom 14 Abr, 2019 19:12

Gracias, DMMD. :)

Saludos.

Avatar de Usuario
Spanish Jhonny
Mensajes: 2556
Registrado: Mar 18 Sep, 2012 16:01

Re: Each Dawn I Die (William Keighley, 1939) HD 720p Dual SE

Mensaje por Spanish Jhonny » Dom 14 Abr, 2019 22:55

Gracial mil DMMD ;) :plas: :plas: :plas:

Avatar de Usuario
paizoco
Mensajes: 2570
Registrado: Vie 21 Nov, 2003 01:00
Ubicación: Far West

Re: Each Dawn I Die (William Keighley, 1939) HD 720p Dual SE

Mensaje por paizoco » Lun 15 Abr, 2019 00:50

Me apunto una vez más, y una vez más gracias DMMD

Avatar de Usuario
WalterBurns
Mensajes: 1028
Registrado: Dom 11 Oct, 2015 15:08

Re: Each Dawn I Die (William Keighley, 1939) HD 720p Dual SE

Mensaje por WalterBurns » Mar 16 Abr, 2019 00:16

Gracias por compartirla.

Avatar de Usuario
Lucio49
Mensajes: 105
Registrado: Mié 04 Feb, 2015 16:59
Ubicación: Brazil

Re: Each Dawn I Die (William Keighley, 1939) HD 720p Dual SE

Mensaje por Lucio49 » Mar 16 Abr, 2019 12:57

Muchas gracias.

Responder