Walk Softly, Stranger (Robert Stevenson, 1950) HD 720p Dual SE

Publica y encuentra enlaces p2p de filmes hasta 1980 en esta sección.
Responder
Avatar de Usuario
DMMD
Mensajes: 1673
Registrado: Lun 27 Feb, 2012 14:16

Walk Softly, Stranger (Robert Stevenson, 1950) HD 720p Dual SE

Mensaje por DMMD » Sab 13 Abr, 2019 17:49

Imagen

Imagen


Despacio, forastero


Título original Walk Softly, Stranger
Año 1950
Duración 81 min.
País Imagen
Dirección Robert Stevenson
Guion Manuel Seff, Paul Yawitz, Frank Fenton
Música Friedrich Hollaender
Fotografía Harry J. Wild (B&W)
Reparto
Joseph Cotten, Alida Valli, Spring Byington, Paul Stewart, Jack Paar, John McIntire, Howard Petrie, Jeff Donnell, Frank Puglia, Esther Dale

Productora Dore Schary Productions / Vanguard Films / RKO Radio Pictures
Género Cine negro. Drama. Romance | Crimen. Juego. Discapacidad
Sinopsis
Chris Hale, un jugador sin escrúpulos, llega a un pequeño pueblo en el que supuestamente vivió cuando era niño. Pronto consigue encandilar a los vecinos, y utiliza su encanto personal para seducir a Elaine Corelli, una rica heredera postrada en una silla de ruedas, tras un accidente. Aunque intenta enderezar su vida, Chris tendrá que resolver asuntos turbios del pasado. FILMAFFINITY



-------------------------------Vídeo: --------------------------------

Encode partiendo de una emisión televisiva 1008p (Tcm)

Código: Seleccionar todo

General
Unique ID                                : 267596984931290791207700788177434262560 (0xC9514DFC46E86ED91B9534D7BEFF3C20)
Complete name                            : D:\Incoming\1950-Walk.Softly.Stranger.HDTVRip.720p.AC3.AAC[DMMD].mkv
Format                                   : Matroska
Format version                           : Version 4
File size                                : 2.89 GiB
Duration                                 : 1 h 21 min
Overall bit rate                         : 5 101 kb/s
Movie name                               : 1950-Walk.Softly.Stranger.HDTVRip.720p.AC3.AAC[DMMD]
Encoded date                             : UTC 2019-04-13 15:37:21
Writing application                      : mkvmerge v33.0.0 ('A Little Bit of Madness') 64-bit
Writing library                          : libebml v1.3.7 + libmatroska v1.5.0
Attachments                              : 2 / 1

Video
ID                                       : 1
Format                                   : AVC
Format/Info                              : Advanced Video Codec
Format profile                           : High@L4.1
Format settings                          : CABAC / 11 Ref Frames
Format settings, CABAC                   : Yes
Format settings, RefFrames               : 11 frames
Codec ID                                 : V_MPEG4/ISO/AVC
Duration                                 : 1 h 21 min
Bit rate                                 : 4 479 kb/s
Width                                    : 986 pixels
Height                                   : 720 pixels
Display aspect ratio                     : 4:3
Frame rate mode                          : Constant
Frame rate                               : 23.976 (24000/1001) FPS
Color space                              : YUV
Chroma subsampling                       : 4:2:0
Bit depth                                : 8 bits
Scan type                                : Progressive
Bits/(Pixel*Frame)                       : 0.263
Stream size                              : 2.54 GiB (88%)
Writing library                          : x264 core 152 r2851kMod ba24899
Encoding settings                        : cabac=1 / ref=11 / deblock=1:-3:-3 / analyse=0x3:0x133 / me=umh / subme=11 / psy=1 / fade_compensate=0.00 / psy_rd=1.00:0.00 / mixed_ref=1 / me_range=64 / chroma_me=1 / trellis=2 / 8x8dct=1 / cqm=0 / deadzone=21,11 / fast_pskip=0 / chroma_qp_offset=-2 / threads=6 / lookahead_threads=1 / sliced_threads=0 / nr=0 / decimate=0 / interlaced=0 / bluray_compat=0 / constrained_intra=0 / bframes=8 / b_pyramid=2 / b_adapt=2 / b_bias=0 / direct=3 / weightb=1 / open_gop=0 / weightp=2 / keyint=250 / keyint_min=23 / scenecut=40 / intra_refresh=0 / rc=crf / mbtree=0 / crf=19.5000 / qcomp=0.60 / qpmin=0 / qpmax=69 / qpstep=4 / ip_ratio=1.40 / pb_ratio=1.30 / aq=3:0.50
Language                                 : English
Default                                  : Yes
Forced                                   : No

Audio #1
ID                                       : 2
Format                                   : AC-3
Format/Info                              : Audio Coding 3
Commercial name                          : Dolby Digital
Codec ID                                 : A_AC3
Duration                                 : 1 h 21 min
Bit rate mode                            : Constant
Bit rate                                 : 448 kb/s
Channel(s)                               : 6 channels
Channel layout                           : L R C LFE Ls Rs
Sampling rate                            : 48.0 kHz
Frame rate                               : 31.250 FPS (1536 SPF)
Bit depth                                : 16 bits
Compression mode                         : Lossy
Stream size                              : 260 MiB (9%)
Language                                 : English
Service kind                             : Complete Main
Default                                  : Yes
Forced                                   : No

Audio #2
ID                                       : 3
Format                                   : AAC LC
Format/Info                              : Advanced Audio Codec Low Complexity
Codec ID                                 : A_AAC-2
Duration                                 : 1 h 21 min
Bit rate                                 : 172 kb/s
Channel(s)                               : 2 channels
Channel layout                           : L R
Sampling rate                            : 48.0 kHz
Frame rate                               : 46.875 FPS (1024 SPF)
Compression mode                         : Lossy
Delay relative to video                  : 9 ms
Stream size                              : 99.8 MiB (3%)
Language                                 : Spanish
Default                                  : No
Forced                                   : No

Text #1
ID                                       : 4
Format                                   : UTF-8
Codec ID                                 : S_TEXT/UTF8
Codec ID/Info                            : UTF-8 Plain Text
Duration                                 : 1 h 20 min
Bit rate                                 : 58 b/s
Count of elements                        : 1084
Stream size                              : 34.4 KiB (0%)
Language                                 : Spanish
Default                                  : Yes
Forced                                   : No

Text #2
ID                                       : 5
Format                                   : UTF-8
Codec ID                                 : S_TEXT/UTF8
Codec ID/Info                            : UTF-8 Plain Text
Duration                                 : 1 h 20 min
Bit rate                                 : 78 b/s
Count of elements                        : 1140
Stream size                              : 46.4 KiB (0%)
Language                                 : English
Default                                  : No
Forced                                   : No

Menu
00:00:00.000                             : :Chapter 1
00:01:48.000                             : :Chapter 2
00:05:03.000                             : :Chapter 3
00:08:07.000                             : :Chapter 4
00:11:28.000                             : :Chapter 5
00:14:47.000                             : :Chapter 6
00:15:40.000                             : :Chapter 7
00:17:28.000                             : :Chapter 8
00:20:41.000                             : :Chapter 9
00:22:57.000                             : :Chapter 10
00:26:12.000                             : :Chapter 11
00:29:46.000                             : :Chapter 12
00:31:55.000                             : :Chapter 13
00:33:48.000                             : :Chapter 14
00:37:39.000                             : :Chapter 15
00:40:03.000                             : :Chapter 16
00:42:29.000                             : :Chapter 17
00:46:29.000                             : :Chapter 18
00:49:22.000                             : :Chapter 19
00:52:28.000                             : :Chapter 20
00:54:55.000                             : :Chapter 21
00:59:10.000                             : :Chapter 22
01:02:36.000                             : :Chapter 23
01:05:54.000                             : :Chapter 24
01:10:00.000                             : :Chapter 25
01:12:04.000                             : :Chapter 26
01:14:47.000                             : :Chapter 27
01:17:54.000                             : :Chapter 28

HDTVRip 720p Vs Dvd (Pal) Vs Dvd (Ntsc)

Imagen
Imagen
Imagen




-----------------------------------------------Audios y subtítulos---------------------------------------------

- Para la V.O. de la propia emisión televisiva.

- Para la sincro del doblaje el audio y sub del propio Dvd (Pal)



Imagen


CAPTURAS

Imagen
Imagen
Imagen
Imagen
Imagen
Imagen
Imagen
Imagen



Enlaces de descarga

Imagen

1950-Walk.Softly.Stranger.HDTVRip.720p.AC3.AAC.DMMD.mkv

Avatar de Usuario
piakito bishop
Mensajes: 115
Registrado: Dom 03 Ene, 2010 00:08

Re: Walk Softly, Stranger (Robert Stevenson, 1950) HD 720p Dual SE

Mensaje por piakito bishop » Sab 13 Abr, 2019 19:50

DMMD, estás desencadenado.

Muchas gracias de nuevo.

ostrata
Mensajes: 1801
Registrado: Mié 24 Mar, 2010 17:29

Re: Walk Softly, Stranger (Robert Stevenson, 1950) HD 720p Dual SE

Mensaje por ostrata » Sab 13 Abr, 2019 23:01

Gracias. :)

Saludos.

Avatar de Usuario
Spanish Jhonny
Mensajes: 2556
Registrado: Mar 18 Sep, 2012 16:01

Re: Walk Softly, Stranger (Robert Stevenson, 1950) HD 720p Dual SE

Mensaje por Spanish Jhonny » Dom 14 Abr, 2019 11:05

Muchas gracias DMMD ;)
Saludos

Avatar de Usuario
WalterBurns
Mensajes: 1028
Registrado: Dom 11 Oct, 2015 15:08

Re: Walk Softly, Stranger (Robert Stevenson, 1950) HD 720p Dual SE

Mensaje por WalterBurns » Dom 14 Abr, 2019 16:24

Gracias por compartirla.

maimes
Mensajes: 224
Registrado: Mié 20 Abr, 2011 13:03

Re: Walk Softly, Stranger (Robert Stevenson, 1950) HD 720p Dual SE

Mensaje por maimes » Dom 14 Abr, 2019 17:37

Muchas gracias por compartir esta versión. Renovando. Gracias y saludos.

Avatar de Usuario
paizoco
Mensajes: 2570
Registrado: Vie 21 Nov, 2003 01:00
Ubicación: Far West

Re: Walk Softly, Stranger (Robert Stevenson, 1950) HD 720p Dual SE

Mensaje por paizoco » Lun 15 Abr, 2019 01:05

Me apunto, muchas gracias DMMD

Avatar de Usuario
baldomp
Mensajes: 146
Registrado: Mar 15 Ago, 2017 12:55

Re: Walk Softly, Stranger (Robert Stevenson, 1950) HD 720p Dual SE

Mensaje por baldomp » Lun 15 Abr, 2019 06:38

Me uno como "bajador" y mantengo como "compartidor" 8) . Gracias por la cuidada versión.

Avatar de Usuario
salonilla
Todos esos recuerdos se perderán
Mensajes: 13
Registrado: Sab 09 Ene, 2010 08:18

Re: Walk Softly, Stranger (Robert Stevenson, 1950) HD 720p Dual SE

Mensaje por salonilla » Lun 15 Abr, 2019 11:53

Muchas gracias DMMD....

larigan
Mensajes: 476
Registrado: Dom 15 Nov, 2015 17:00

Re: Walk Softly, Stranger (Robert Stevenson, 1950) HD 720p Dual SE

Mensaje por larigan » Mar 16 Abr, 2019 21:50

Muchas gracias

Avatar de Usuario
mith34
Mensajes: 76
Registrado: Dom 10 Ene, 2010 13:10
Ubicación: En el desierto

Re: Walk Softly, Stranger (Robert Stevenson, 1950) HD 720p Dual SE

Mensaje por mith34 » Mié 17 Abr, 2019 19:12

Muchas gracias DMMD!

No tendrás por ahí guardado un ripeo de La calle sin nombre, ¿no? Esa peli está pidiendo a gritos una buena edición, el dvd que sacaron aquí era una pena.

Responder