Cluny Brown (Ernst Lubitsch, 1946) HD 720p Dual SE

Publica y encuentra enlaces p2p de filmes hasta 1980 en esta sección.
Responder
Avatar de Usuario
DMMD
Mensajes: 1673
Registrado: Lun 27 Feb, 2012 14:16

Cluny Brown (Ernst Lubitsch, 1946) HD 720p Dual SE

Mensaje por DMMD » Dom 07 Abr, 2019 18:48

Imagen


Imagen


El pecado de Cluny Brown


Título original Cluny Brown
Año 1946
Duración 100 min.
País Imagen
Dirección Ernst Lubitsch
Guion Samuel Hoffenstein, Elzabeth Reinhardt, James Hilton (Novela: Margery Sharp)
Música Cyril Mockridge, Emil Newman
Fotografía Joseph LaShelle (B&W)
Reparto
Charles Boyer, Jennifer Jones, Peter Lawford, Helen Walker, Reginald Gardiner, C. Aubrey Smith, Reginald Owen, Sara Allgood, Ernest Cossart, Una O'Connor, Florence Bates, Richard Haydn

Productora 20th Century Fox
Género Comedia | Comedia romántica
Sinopsis
Unos días antes del estallido de la Segunda Guerra Mundial (1939-1945), a Cluny (Jones), una joven apasionada de la fontanería, la envía su tío a servir como criada en una rica mansión inglesa. La vida como sirvienta es dura, pero sus días los alegra un refugiado checo (Boyer), invitado de los dueños de la mansión, que ha huido del nazismo. Ambos se identifican como "almas desplazadas", pero ella no quiere nada romántico con su agradable nuevo amigo. (FILMAFFINITY)





-------------------------------Vídeo: --------------------------------

Encode partiendo de una emisión televisiva 1008p (Tcm)


HDTVRip 720p Vs Dvd (Pal)

Imagen
Imagen


Código: Seleccionar todo

General
Unique ID                                : 94317953183613857163094126129431903387 (0x46F4FA1ED5117F412241A7D7C42AFC9B)
Complete name                            : D:\Incoming\1946-Cluny.Brown.HDTVRip.720p.AC3.DMMD.mkv
Format                                   : Matroska
Format version                           : Version 4
File size                                : 2.52 GiB
Duration                                 : 1 h 40 min
Overall bit rate                         : 3 586 kb/s
Movie name                               : 1946-Cluny.Brown.HDTVRip.720p.AC3.DMMD
Encoded date                             : UTC 2019-04-07 14:58:01
Writing application                      : mkvmerge v30.1.0 ('Forever And More') 64-bit
Writing library                          : libebml v1.3.6 + libmatroska v1.4.9
Attachments                              : 1

Video
ID                                       : 1
Format                                   : AVC
Format/Info                              : Advanced Video Codec
Format profile                           : High@L4.1
Format settings                          : CABAC / 11 Ref Frames
Format settings, CABAC                   : Yes
Format settings, RefFrames               : 11 frames
Codec ID                                 : V_MPEG4/ISO/AVC
Duration                                 : 1 h 40 min
Bit rate                                 : 2 944 kb/s
Width                                    : 986 pixels
Height                                   : 720 pixels
Display aspect ratio                     : 4:3
Frame rate mode                          : Constant
Frame rate                               : 23.976 (24000/1001) FPS
Color space                              : YUV
Chroma subsampling                       : 4:2:0
Bit depth                                : 8 bits
Scan type                                : Progressive
Bits/(Pixel*Frame)                       : 0.173
Stream size                              : 2.06 GiB (82%)
Writing library                          : x264 core 152 r2851kMod ba24899
Encoding settings                        : cabac=1 / ref=11 / deblock=1:-3:-3 / analyse=0x3:0x133 / me=umh / subme=11 / psy=1 / fade_compensate=0.00 / psy_rd=1.00:0.00 / mixed_ref=1 / me_range=64 / chroma_me=0 / trellis=2 / 8x8dct=1 / cqm=0 / deadzone=21,11 / fast_pskip=0 / chroma_qp_offset=-2 / threads=6 / lookahead_threads=1 / sliced_threads=0 / nr=0 / decimate=0 / interlaced=0 / bluray_compat=0 / constrained_intra=0 / bframes=8 / b_pyramid=2 / b_adapt=2 / b_bias=0 / direct=3 / weightb=1 / open_gop=0 / weightp=2 / keyint=250 / keyint_min=23 / scenecut=40 / intra_refresh=0 / rc=crf / mbtree=0 / crf=19.0000 / qcomp=0.60 / qpmin=0 / qpmax=69 / qpstep=4 / ip_ratio=1.40 / pb_ratio=1.30 / aq=1:0.55
Language                                 : English
Default                                  : Yes
Forced                                   : No

Audio #1
ID                                       : 2
Format                                   : AC-3
Format/Info                              : Audio Coding 3
Commercial name                          : Dolby Digital
Codec ID                                 : A_AC3
Duration                                 : 1 h 40 min
Bit rate mode                            : Constant
Bit rate                                 : 448 kb/s
Channel(s)                               : 6 channels
Channel layout                           : L R C LFE Ls Rs
Sampling rate                            : 48.0 kHz
Frame rate                               : 31.250 FPS (1536 SPF)
Bit depth                                : 16 bits
Compression mode                         : Lossy
Stream size                              : 322 MiB (12%)
Language                                 : English
Service kind                             : Complete Main
Default                                  : Yes
Forced                                   : No

Audio #2
ID                                       : 3
Format                                   : AC-3
Format/Info                              : Audio Coding 3
Commercial name                          : Dolby Digital
Codec ID                                 : A_AC3
Duration                                 : 1 h 40 min
Bit rate mode                            : Constant
Bit rate                                 : 192 kb/s
Channel(s)                               : 2 channels
Channel layout                           : L R
Sampling rate                            : 48.0 kHz
Frame rate                               : 31.250 FPS (1536 SPF)
Bit depth                                : 16 bits
Compression mode                         : Lossy
Stream size                              : 138 MiB (5%)
Language                                 : Spanish
Service kind                             : Complete Main
Default                                  : No
Forced                                   : No

Text #1
ID                                       : 4
Format                                   : UTF-8
Codec ID                                 : S_TEXT/UTF8
Codec ID/Info                            : UTF-8 Plain Text
Duration                                 : 1 h 39 min
Bit rate                                 : 72 b/s
Count of elements                        : 1734
Stream size                              : 52.7 KiB (0%)
Language                                 : Spanish
Default                                  : Yes
Forced                                   : No

Text #2
ID                                       : 5
Format                                   : UTF-8
Codec ID                                 : S_TEXT/UTF8
Codec ID/Info                            : UTF-8 Plain Text
Duration                                 : 1 h 40 min
Bit rate                                 : 111 b/s
Count of elements                        : 1787
Stream size                              : 81.7 KiB (0%)
Language                                 : English
Default                                  : No
Forced                                   : No

Menu
00:00:00.000                             : en:Chapter 1
00:01:06.960                             : en:Chapter 2
00:13:30.920                             : en:Chapter 3
00:20:14.320                             : en:Chapter 4
00:22:40.600                             : en:Chapter 5
00:31:04.240                             : en:Chapter 6
00:39:45.440                             : en:Chapter 7
00:44:53.320                             : en:Chapter 8
00:54:38.640                             : en:Chapter 9
01:00:03.760                             : en:Chapter 10
01:03:55.600                             : en:Chapter 11
01:08:21.840                             : en:Chapter 12
01:14:03.760                             : en:Chapter 13
01:16:50.200                             : en:Chapter 14
01:25:12.080                             : en:Chapter 15
01:28:46.160                             : en:Chapter 16
01:35:03.720                             : en:Chapter 17


-----------------------------------------------Audios y subtítulos---------------------------------------------

- Para la V.O. de la propia emisión televisiva.

- Para la sincro del doblaje el audio y sub del propio Dvd (Pal)





CAPTURAS

Imagen
Imagen
Imagen
Imagen
Imagen
Imagen
Imagen
Imagen



Enlaces de descarga

Imagen

1946-Cluny.Brown.HDTVRip.720p.AC3.DMMD.mkv

Avatar de Usuario
Jacob
Exprópiese
Mensajes: 9358
Registrado: Jue 01 Jul, 2004 02:00
Ubicación: Where no one has gone before!

Re: Cluny Brown (Ernst Lubitsch, 1946) HD 720p Dual SE

Mensaje por Jacob » Dom 07 Abr, 2019 19:50

La vi hace poco así que no me apunto, pero te agradezco el ripeo, DMMD. :yes:

ostrata
Mensajes: 1801
Registrado: Mié 24 Mar, 2010 17:29

Re: Cluny Brown (Ernst Lubitsch, 1946) HD 720p Dual SE

Mensaje por ostrata » Dom 07 Abr, 2019 20:17

Gracias. :)

Saludos.

Avatar de Usuario
duegno
Mensajes: 271
Registrado: Dom 28 Ago, 2011 13:28

Re: Cluny Brown (Ernst Lubitsch, 1946) HD 720p Dual SE

Mensaje por duegno » Dom 07 Abr, 2019 21:01

Gracias, la veremos también.

Avatar de Usuario
paizoco
Mensajes: 2570
Registrado: Vie 21 Nov, 2003 01:00
Ubicación: Far West

Re: Cluny Brown (Ernst Lubitsch, 1946) HD 720p Dual SE

Mensaje por paizoco » Dom 07 Abr, 2019 22:39

Me apunto, muchas gracias.

joramor
Mensajes: 1510
Registrado: Vie 05 Nov, 2010 19:55

Re: Cluny Brown (Ernst Lubitsch, 1946) HD 720p Dual SE

Mensaje por joramor » Lun 08 Abr, 2019 00:25

Muchas gracias DMMD. Salu2.

Avatar de Usuario
Spanish Jhonny
Mensajes: 2556
Registrado: Mar 18 Sep, 2012 16:01

Re: Cluny Brown (Ernst Lubitsch, 1946) HD 720p Dual SE

Mensaje por Spanish Jhonny » Lun 08 Abr, 2019 08:37

Muy simpática ;)
Muchas gracias DMMD

Avatar de Usuario
jomime
Mensajes: 618
Registrado: Vie 02 Mar, 2012 13:27

Re: Cluny Brown (Ernst Lubitsch, 1946) HD 720p Dual SE

Mensaje por jomime » Lun 08 Abr, 2019 09:13

Una pecaminosa Imagen

kaski
Mensajes: 60
Registrado: Vie 07 Jun, 2013 20:43

Re: Cluny Brown (Ernst Lubitsch, 1946) HD 720p Dual SE

Mensaje por kaski » Lun 08 Abr, 2019 17:59

Muchas gracias.

Avatar de Usuario
elmajete
Mensajes: 933
Registrado: Vie 18 May, 2007 22:05

Re: Cluny Brown (Ernst Lubitsch, 1946) HD 720p Dual SE

Mensaje por elmajete » Vie 12 Abr, 2019 14:54

Muchas gracias DMMD por tu aportación :plas: :plas: :plas:

Avatar de Usuario
WalterBurns
Mensajes: 1028
Registrado: Dom 11 Oct, 2015 15:08

Re: Cluny Brown (Ernst Lubitsch, 1946) HD 720p Dual SE

Mensaje por WalterBurns » Vie 12 Abr, 2019 23:55

Gracias por compartirla.

Avatar de Usuario
salonilla
Todos esos recuerdos se perderán
Mensajes: 13
Registrado: Sab 09 Ene, 2010 08:18

Re: Cluny Brown (Ernst Lubitsch, 1946) HD 720p Dual SE

Mensaje por salonilla » Mar 16 Abr, 2019 16:34

Muchas gracias DMMD por tu aportación ..

Avatar de Usuario
mith34
Mensajes: 76
Registrado: Dom 10 Ene, 2010 13:10
Ubicación: En el desierto

Re: Cluny Brown (Ernst Lubitsch, 1946) HD 720p Dual SE

Mensaje por mith34 » Mié 17 Abr, 2019 19:09

Muchas gracias DMMD, otra más que voy a descubrir gracias a ti!

Responder