This Land Is Mine (Jean Renoir, 1943) HD 720p Dual SE

Publica y encuentra enlaces p2p de filmes hasta 1980 en esta sección.
Responder
Avatar de Usuario
DMMD
Mensajes: 1673
Registrado: Lun 27 Feb, 2012 14:16

This Land Is Mine (Jean Renoir, 1943) HD 720p Dual SE

Mensaje por DMMD » Sab 06 Abr, 2019 12:32

Imagen




Imagen

Esta tierra es mía

Título original This Land is Mine
Año 1943
Duración 103 min.
País Imagen
Director Jean Renoir
Guión Jean Renoir & Dudley Nichols
Música Lothar Perl
Fotografía Frank Redman (B&W)
Reparto
Charles Laughton, Maureen O'Hara, George Sanders, Walter Slezak, Kent Smith, Una O'Connor, Philip Merivale, George Coulouris

Productora RKO Radio Pictures
Género Drama | II Guerra Mundial. Nazismo
Sinopsis
Arthur (Charles Laughton), un profesor francés tímido y muy cobarde, recupera el valor y la dignidad al pronunciar un encendido discurso sobre la libertad durante el juicio al que es sometido por un asesinato que no cometió. Louise Martin (Maureen O'Hara) tiene un hermano que toma parte en sabotajes contra los nazis. George Lambert (George Sanders), en cambio, colabora con los alemanes porque piensa que ése es el único camino para lograr la paz y la seguridad. (FILMAFFINITY)



-------------------------------Vídeo: --------------------------------

Encode partiendo de una emisión televisiva 1080p (Tcm), con algún retoque que otro. :mrgreen:

Código: Seleccionar todo

General
Unique ID                                : 46583619648271218646727997821456949059 (0x230BADC5D3CA3E03A93D19C8C2CB1F43)
Complete name                            : D:\Incoming\1943-This.Land.Is.Mine.HDTVRip.720p.AC3.AAC.(DMMD&Santi).mkv
Format                                   : Matroska
Format version                           : Version 4
File size                                : 3.92 GiB
Duration                                 : 1 h 43 min
Overall bit rate                         : 5 444 kb/s
Movie name                               : 1943-This.Land.Is.Mine.HDTVRip.720p.AC3.AAC.(DMMD&Santi)
Encoded date                             : UTC 2019-04-06 10:10:46
Writing application                      : mkvmerge v30.1.0 ('Forever And More') 64-bit
Writing library                          : libebml v1.3.6 + libmatroska v1.4.9
Attachments                              : a.jpg

Video
ID                                       : 1
Format                                   : AVC
Format/Info                              : Advanced Video Codec
Format profile                           : High@L4.1
Format settings                          : CABAC / 11 Ref Frames
Format settings, CABAC                   : Yes
Format settings, RefFrames               : 11 frames
Codec ID                                 : V_MPEG4/ISO/AVC
Duration                                 : 1 h 43 min
Bit rate                                 : 4 851 kb/s
Width                                    : 986 pixels
Height                                   : 720 pixels
Display aspect ratio                     : 4:3
Frame rate mode                          : Constant
Frame rate                               : 23.976 (24000/1001) FPS
Color space                              : YUV
Chroma subsampling                       : 4:2:0
Bit depth                                : 8 bits
Scan type                                : Progressive
Bits/(Pixel*Frame)                       : 0.285
Stream size                              : 3.50 GiB (89%)
Writing library                          : x264 core 152 r2851kMod ba24899
Encoding settings                        : cabac=1 / ref=11 / deblock=1:-3:-3 / analyse=0x3:0x133 / me=umh / subme=11 / psy=1 / fade_compensate=0.00 / psy_rd=1.00:0.00 / mixed_ref=1 / me_range=64 / chroma_me=0 / trellis=2 / 8x8dct=1 / cqm=0 / deadzone=21,11 / fast_pskip=0 / chroma_qp_offset=-2 / threads=6 / lookahead_threads=1 / sliced_threads=0 / nr=0 / decimate=0 / interlaced=0 / bluray_compat=0 / constrained_intra=0 / bframes=8 / b_pyramid=2 / b_adapt=2 / b_bias=0 / direct=3 / weightb=1 / open_gop=0 / weightp=2 / keyint=250 / keyint_min=23 / scenecut=40 / intra_refresh=0 / rc=crf / mbtree=0 / crf=19.5000 / qcomp=0.60 / qpmin=0 / qpmax=69 / qpstep=4 / ip_ratio=1.40 / pb_ratio=1.30 / aq=3:0.50
Language                                 : English
Default                                  : No
Forced                                   : No

Audio #1
ID                                       : 2
Format                                   : AC-3
Format/Info                              : Audio Coding 3
Commercial name                          : Dolby Digital
Codec ID                                 : A_AC3
Duration                                 : 1 h 43 min
Bit rate mode                            : Constant
Bit rate                                 : 448 kb/s
Channel(s)                               : 6 channels
Channel layout                           : L R C LFE Ls Rs
Sampling rate                            : 48.0 kHz
Frame rate                               : 31.250 FPS (1536 SPF)
Bit depth                                : 16 bits
Compression mode                         : Lossy
Stream size                              : 331 MiB (8%)
Language                                 : English
Service kind                             : Complete Main
Default                                  : No
Forced                                   : No

Audio #2
ID                                       : 3
Format                                   : AAC LC
Format/Info                              : Advanced Audio Codec Low Complexity
Codec ID                                 : A_AAC-2
Duration                                 : 1 h 43 min
Bit rate                                 : 144 kb/s
Channel(s)                               : 2 channels
Channel layout                           : L R
Sampling rate                            : 48.0 kHz
Frame rate                               : 46.875 FPS (1024 SPF)
Compression mode                         : Lossy
Stream size                              : 105 MiB (3%)
Title                                    : Doblaje TVE 1981
Language                                 : Spanish
Default                                  : No
Forced                                   : No

Text #1
ID                                       : 4
Format                                   : UTF-8
Codec ID                                 : S_TEXT/UTF8
Codec ID/Info                            : UTF-8 Plain Text
Duration                                 : 1 h 41 min
Bit rate                                 : 58 b/s
Count of elements                        : 1379
Stream size                              : 43.9 KiB (0%)
Language                                 : Spanish
Default                                  : No
Forced                                   : No

Text #2
ID                                       : 5
Format                                   : UTF-8
Codec ID                                 : S_TEXT/UTF8
Codec ID/Info                            : UTF-8 Plain Text
Duration                                 : 32 min 54 s
Bit rate                                 : 1 b/s
Count of elements                        : 20
Stream size                              : 423 Bytes (0%)
Title                                    : Forzados
Language                                 : Spanish
Default                                  : No
Forced                                   : No

Text #3
ID                                       : 6
Format                                   : UTF-8
Codec ID                                 : S_TEXT/UTF8
Codec ID/Info                            : UTF-8 Plain Text
Duration                                 : 1 h 42 min
Bit rate                                 : 89 b/s
Count of elements                        : 1677
Stream size                              : 67.5 KiB (0%)
Language                                 : English
Default                                  : No
Forced                                   : No

Menu
00:00:00.000                             : en:Chapter 1
00:01:21.867                             : en:Chapter 2
00:04:03.133                             : en:Chapter 3
00:08:18.133                             : en:Chapter 4
00:11:16.900                             : en:Chapter 5
00:15:10.033                             : en:Chapter 6
00:19:33.166                             : en:Chapter 7
00:23:56.933                             : en:Chapter 8
00:26:16.333                             : en:Chapter 9
00:32:00.100                             : en:Chapter 10
00:35:53.233                             : en:Chapter 11
00:39:07.000                             : en:Chapter 12
00:41:13.266                             : en:Chapter 13
00:43:07.033                             : en:Chapter 14
00:46:35.166                             : en:Chapter 15
00:50:05.166                             : en:Chapter 16
00:52:30.166                             : en:Chapter 17
00:55:38.933                             : en:Chapter 18
00:59:58.933                             : en:Chapter 19
01:01:33.300                             : en:Chapter 20
01:05:16.433                             : en:Chapter 21
01:07:28.300                             : en:Chapter 22
01:09:00.200                             : en:Chapter 23
01:11:53.333                             : en:Chapter 24
01:13:18.966                             : en:Chapter 25
01:15:05.232                             : en:Chapter 26
01:20:08.365                             : en:Chapter 27
01:25:25.265                             : en:Chapter 28
01:26:41.531                             : en:Chapter 29
01:29:04.031                             : en:Chapter 30
01:34:13.398                             : en:Chapter 31
01:36:08.398                             : en:Chapter 32
01:37:30.298                             : en:Chapter 33
01:41:56.564                             : en:Chapter 34
HDTVRip 720p Vs Dvdx264 (Anterior aporte)

Imagen
Imagen


REVIEW


Imagen


-----------------------------------------------Audios y subtítulos---------------------------------------------

- Para la V.O. de la propia emisión televisiva.

- La sincro a cargo de Don Santiago. :plas:

santiagoo escribió: La pista de audio doblado se corresponde con un doblaje para su emisión en TVE en 1981., que es el primero y único que hay, ya que la peli no se estrenó en España en su día, y posteriormente en los años 70 se emitió con doblaje neutro, según apuntan los chicos de eldoblaje.com. Es un doblaje de calidad que respeta la BSO, si bien se permite la licencia de "aumentarla" en alguna ocasión, sustituyendo partes de silencio por sonidos de ferrocarril, y alguna otra cosilla más sin ninguna importancia....
Se incluyen 20 líneas de forzados para una canción y algún diálogo en alemán.


Subtítulos completos de mi anterior aporte (Dvdx264)

Imagen


CAPTURAS

Imagen
Imagen
Imagen
Imagen
Imagen
Imagen
Imagen
Imagen
Imagen


Enlaces de descarga

Imagen

1943-This.Land.Is.Mine.HDTVRip.720p.AC3.AAC.(DMMD&Santi).mkv


---------------------------------
Anterior aporte:

This Land Is Mine (Jean Renoir, 1946) DVDRip Dual SE

Última edición por DMMD el Vie 12 Abr, 2019 17:37, editado 1 vez en total.

Avatar de Usuario
Spanish Jhonny
Mensajes: 2556
Registrado: Mar 18 Sep, 2012 16:01

Re: This Land Is Mine (Jean Renoir, 1943) HD Dual SE

Mensaje por Spanish Jhonny » Sab 06 Abr, 2019 12:39

Magnífica película y publicación DMMD y Santi :plas: :plas:
Muchas gracias

kaski
Mensajes: 60
Registrado: Vie 07 Jun, 2013 20:43

Re: This Land Is Mine (Jean Renoir, 1943) HD Dual SE

Mensaje por kaski » Sab 06 Abr, 2019 13:10

Muchísimas gracias DMMD.

Avatar de Usuario
piakito bishop
Mensajes: 115
Registrado: Dom 03 Ene, 2010 00:08

Re: This Land Is Mine (Jean Renoir, 1943) HD Dual SE

Mensaje por piakito bishop » Sab 06 Abr, 2019 13:23

Me encanta esta película, me encantan los protagonistas y me encanta el director. Recomiendo la lectura del libro "Mi vida y mi cine" en el que habla de su infancia, de su padre, de sus películas... y lo hace con una sencillez, con una humildad, que deslumbra tanto como lo hacen muchas de sus películas.

Y por supuesto me encantan DMMD y Santi. Gracias chicos.

Avatar de Usuario
bull
Mensajes: 210
Registrado: Lun 23 Sep, 2013 14:22

Re: This Land Is Mine (Jean Renoir, 1943) HD Dual SE

Mensaje por bull » Sab 06 Abr, 2019 14:11

Muchas gracias, chicos.
Renuevo tu DVDRip.
Saludos.

ostrata
Mensajes: 1801
Registrado: Mié 24 Mar, 2010 17:29

Re: This Land Is Mine (Jean Renoir, 1943) HD Dual SE

Mensaje por ostrata » Sab 06 Abr, 2019 14:12

Gracias. :)

Saludos.

Avatar de Usuario
paizoco
Mensajes: 2570
Registrado: Vie 21 Nov, 2003 01:00
Ubicación: Far West

Re: This Land Is Mine (Jean Renoir, 1943) HD Dual SE

Mensaje por paizoco » Sab 06 Abr, 2019 15:15

Me apunto, muchas gracias.

joramor
Mensajes: 1510
Registrado: Vie 05 Nov, 2010 19:55

Re: This Land Is Mine (Jean Renoir, 1943) HD Dual SE

Mensaje por joramor » Dom 07 Abr, 2019 00:41

Muchas gracias, dmmd & santi. Salu2.

Avatar de Usuario
janca
Mensajes: 2091
Registrado: Dom 20 Dic, 2009 09:31

Re: This Land Is Mine (Jean Renoir, 1943) HD 720p Dual SE

Mensaje por janca » Dom 07 Abr, 2019 08:48

Muchas gracias Santi y DMMD

Avatar de Usuario
duegno
Mensajes: 271
Registrado: Dom 28 Ago, 2011 13:28

Re: This Land Is Mine (Jean Renoir, 1943) HD 720p Dual SE

Mensaje por duegno » Dom 07 Abr, 2019 20:58

Gracias, pinta bien.

Avatar de Usuario
elmajete
Mensajes: 933
Registrado: Vie 18 May, 2007 22:05

Re: This Land Is Mine (Jean Renoir, 1943) HD 720p Dual SE

Mensaje por elmajete » Vie 12 Abr, 2019 15:03

Muchas gracias DMMD por tu aportación :plas: :plas: :plas:

Avatar de Usuario
WalterBurns
Mensajes: 1028
Registrado: Dom 11 Oct, 2015 15:08

Re: This Land Is Mine (Jean Renoir, 1943) HD 720p Dual SE

Mensaje por WalterBurns » Dom 14 Abr, 2019 00:34

Gracias por compartirla.

Avatar de Usuario
baldomp
Mensajes: 146
Registrado: Mar 15 Ago, 2017 12:55

Re: This Land Is Mine (Jean Renoir, 1943) HD 720p Dual SE

Mensaje por baldomp » Jue 18 Abr, 2019 08:54

Me confieso un apasionado compartidor más de semejante maravilla. Muchas gracias por reforzar el CINE (así... con mayúsculas)...

Responder