Angel (Ernst Lubitsch, 1937) HD 720p Dual SE

Publica y encuentra enlaces p2p de filmes hasta 1980 en esta sección.
Responder
Avatar de Usuario
DMMD
Mensajes: 1673
Registrado: Lun 27 Feb, 2012 14:16

Angel (Ernst Lubitsch, 1937) HD 720p Dual SE

Mensaje por DMMD » Sab 06 Abr, 2019 10:38

Imagen


Imagen



Ángel


Título original Angel
Año 1937
Duración 91 min.
País Imagen
Dirección Ernst Lubitsch
Guion Samson Raphaelson (Teatro: Melchior Lengyel)
Música Frederick Hollander
Fotografía Charles Lang (B&W)
Reparto
Marlene Dietrich, Melvyn Douglas, Herbert Marshall, Edward Everett Horton, Laura Hope Crews, Herbert Mundin, Ivan Lebadeff, Dennie Moore, Herbert Evans, Ernest Cossart

Productora Paramount Pictures
Género Drama
Sinopsis
Maria es la esposa de Sir Frederick Barker, aristócrata británico que hace tiempo que no le presta atención. Enfadada, se va a París sin decírselo a su marido. Maria conoce allí a Anthony Halton, un americano con quien cena y visita los monumentos de la ciudad... (FILMAFFINITY)



-------------------------------Vídeo: --------------------------------

Encode partiendo de una emisión televisiva 1008p (Tcm), retocando la imagen para hacerla mas atractiva a la vista. :wink:



HDTVRip 720p Vs Dvd (Pal) Vs Dvd (Ntsc)

Imagen
Imagen
Imagen

Código: Seleccionar todo

General
Unique ID                                : 262251332003052837100305867393058208252 (0xC54BC4F28CACAD10567BE8D8AFCBF9FC)
Complete name                            : D:\Incoming\1937-Angel.HDTVRip.720p.AC3.AAC.[DMMD].mkv
Format                                   : Matroska
Format version                           : Version 4
File size                                : 3.49 GiB
Duration                                 : 1 h 30 min
Overall bit rate                         : 5 505 kb/s
Movie name                               : 1937-Angel.HDTVRip.720p.AC3.AAC.[DMMD]
Encoded date                             : UTC 2019-04-05 22:28:09
Writing application                      : mkvmerge v30.1.0 ('Forever And More') 64-bit
Writing library                          : libebml v1.3.6 + libmatroska v1.4.9
Attachments                              : 1 / 2

Video
ID                                       : 1
Format                                   : AVC
Format/Info                              : Advanced Video Codec
Format profile                           : High@L4.1
Format settings                          : CABAC / 11 Ref Frames
Format settings, CABAC                   : Yes
Format settings, RefFrames               : 11 frames
Codec ID                                 : V_MPEG4/ISO/AVC
Duration                                 : 1 h 30 min
Bit rate                                 : 4 924 kb/s
Width                                    : 972 pixels
Height                                   : 720 pixels
Display aspect ratio                     : 4:3
Frame rate mode                          : Constant
Frame rate                               : 23.976 (24000/1001) FPS
Color space                              : YUV
Chroma subsampling                       : 4:2:0
Bit depth                                : 8 bits
Scan type                                : Progressive
Bits/(Pixel*Frame)                       : 0.293
Stream size                              : 3.12 GiB (89%)
Writing library                          : x264 core 152 r2851kMod ba24899
Encoding settings                        : cabac=1 / ref=11 / deblock=1:-3:-3 / analyse=0x3:0x133 / me=umh / subme=11 / psy=1 / fade_compensate=0.00 / psy_rd=1.00:0.00 / mixed_ref=1 / me_range=64 / chroma_me=0 / trellis=2 / 8x8dct=1 / cqm=0 / deadzone=21,11 / fast_pskip=0 / chroma_qp_offset=-2 / threads=6 / lookahead_threads=1 / sliced_threads=0 / nr=0 / decimate=0 / interlaced=0 / bluray_compat=0 / constrained_intra=0 / bframes=8 / b_pyramid=2 / b_adapt=2 / b_bias=0 / direct=3 / weightb=1 / open_gop=0 / weightp=2 / keyint=250 / keyint_min=23 / scenecut=40 / intra_refresh=0 / rc=crf / mbtree=0 / crf=19.6000 / qcomp=0.60 / qpmin=0 / qpmax=69 / qpstep=4 / ip_ratio=1.40 / pb_ratio=1.30 / aq=3:0.55
Language                                 : English
Default                                  : Yes
Forced                                   : No

Audio #1
ID                                       : 2
Format                                   : AC-3
Format/Info                              : Audio Coding 3
Commercial name                          : Dolby Digital
Codec ID                                 : A_AC3
Duration                                 : 1 h 30 min
Bit rate mode                            : Constant
Bit rate                                 : 448 kb/s
Channel(s)                               : 6 channels
Channel layout                           : L R C LFE Ls Rs
Sampling rate                            : 48.0 kHz
Frame rate                               : 31.250 FPS (1536 SPF)
Bit depth                                : 16 bits
Compression mode                         : Lossy
Stream size                              : 291 MiB (8%)
Language                                 : English
Service kind                             : Complete Main
Default                                  : Yes
Forced                                   : No

Audio #2
ID                                       : 3
Format                                   : AAC LC
Format/Info                              : Advanced Audio Codec Low Complexity
Codec ID                                 : A_AAC-2
Duration                                 : 1 h 30 min
Bit rate                                 : 132 kb/s
Channel(s)                               : 2 channels
Channel layout                           : L R
Sampling rate                            : 48.0 kHz
Frame rate                               : 46.875 FPS (1024 SPF)
Compression mode                         : Lossy
Delay relative to video                  : 109 ms
Stream size                              : 84.6 MiB (2%)
Language                                 : Spanish
Default                                  : No
Forced                                   : No

Text #1
ID                                       : 4
Format                                   : UTF-8
Codec ID                                 : S_TEXT/UTF8
Codec ID/Info                            : UTF-8 Plain Text
Duration                                 : 1 h 28 min
Bit rate                                 : 64 b/s
Count of elements                        : 1077
Stream size                              : 41.3 KiB (0%)
Language                                 : Spanish
Default                                  : Yes
Forced                                   : No

Text #2
ID                                       : 5
Format                                   : UTF-8
Codec ID                                 : S_TEXT/UTF8
Codec ID/Info                            : UTF-8 Plain Text
Duration                                 : 1 h 30 min
Bit rate                                 : 100 b/s
Count of elements                        : 1624
Stream size                              : 66.9 KiB (0%)
Language                                 : English
Default                                  : No
Forced                                   : No

Menu
00:00:00.000                             : en:Chapter 1
00:10:48.000                             : en:Chapter 2
00:20:00.000                             : en:Chapter 3
00:29:56.900                             : en:Chapter 4
00:40:19.333                             : en:Chapter 5
00:49:59.766                             : en:Chapter 6
00:59:54.932                             : en:Chapter 7
01:09:59.998                             : en:Chapter 8
01:19:59.998                             : en:Chapter 9
01:29:59.665                             : en:Chapter 10


Imagen



-----------------------------------------------Audios y subtítulos---------------------------------------------

- Para la V.O. de la propia emisión televisiva.

- Para la sincro del doblaje el audio y sub del propio Dvd (Pal)





CAPTURAS

Imagen
Imagen
Imagen
Imagen
Imagen
Imagen
Imagen
Imagen


Enlaces de descarga

Imagen


1937-Angel.HDTVRip.720p.AC3.AAC.DMMD.mkv


Imagen

Avatar de Usuario
Spanish Jhonny
Mensajes: 2556
Registrado: Mar 18 Sep, 2012 16:01

Re: Angel (Ernst Lubitsch, 1937) HD 720p Dual SE

Mensaje por Spanish Jhonny » Sab 06 Abr, 2019 12:23

Pinchop
Muchas gracias DMMD :plas: :plas:

kaski
Mensajes: 60
Registrado: Vie 07 Jun, 2013 20:43

Re: Angel (Ernst Lubitsch, 1937) HD 720p Dual SE

Mensaje por kaski » Sab 06 Abr, 2019 13:08

Muchas gracias.

ostrata
Mensajes: 1801
Registrado: Mié 24 Mar, 2010 17:29

Re: Angel (Ernst Lubitsch, 1937) HD 720p Dual SE

Mensaje por ostrata » Sab 06 Abr, 2019 14:13

¡Doble sesión! Gracias. :)

Saludos.

Avatar de Usuario
paizoco
Mensajes: 2570
Registrado: Vie 21 Nov, 2003 01:00
Ubicación: Far West

Re: Angel (Ernst Lubitsch, 1937) HD 720p Dual SE

Mensaje por paizoco » Sab 06 Abr, 2019 15:14

Me apunto, muchas gracias.

joramor
Mensajes: 1510
Registrado: Vie 05 Nov, 2010 19:55

Re: Angel (Ernst Lubitsch, 1937) HD 720p Dual SE

Mensaje por joramor » Dom 07 Abr, 2019 00:42

Muchas gracias DMMD. Salu2.

Avatar de Usuario
WalterBurns
Mensajes: 1028
Registrado: Dom 11 Oct, 2015 15:08

Re: Angel (Ernst Lubitsch, 1937) HD 720p Dual SE

Mensaje por WalterBurns » Dom 07 Abr, 2019 01:25

Gracias por compartirla.

Avatar de Usuario
janca
Mensajes: 2091
Registrado: Dom 20 Dic, 2009 09:31

Re: Angel (Ernst Lubitsch, 1937) HD 720p Dual SE

Mensaje por janca » Dom 07 Abr, 2019 08:48

Muchas gracias DMMD

Avatar de Usuario
duegno
Mensajes: 271
Registrado: Dom 28 Ago, 2011 13:28

Re: Angel (Ernst Lubitsch, 1937) HD 720p Dual SE

Mensaje por duegno » Dom 07 Abr, 2019 21:14

Gracias, viejuna pero prometedora.

Avatar de Usuario
jomime
Mensajes: 618
Registrado: Vie 02 Mar, 2012 13:27

Re: Angel (Ernst Lubitsch, 1937) HD 720p Dual SE

Mensaje por jomime » Lun 08 Abr, 2019 09:16

Imagen

Responder