The Ghost of Sierra de Cobre (Joseph Stefano, 1964) HD 1080p VOSE

Aquí tienen cabida todas aquellas series, programas, anuncios, etc. que tragamos durante tantos años, cuando no existía Internet y ni siquiera podíamos elegir.
Responder
Avatar de Usuario
hammett
Mensajes: 462
Registrado: Vie 10 Oct, 2008 09:04

The Ghost of Sierra de Cobre (Joseph Stefano, 1964) HD 1080p VOSE

Mensaje por hammett » Sab 16 Mar, 2019 10:37

De la mano de "garganta profunda" nos llega este estupendo BDRip 1080p con los subtítulos traducidos por servidor.
THE GHOST OF SIERRA DE COBRE
Imagen

IMDb

AÑO: 1964
NACIONALIDAD: USA
GÉNERO: Fantástico
DIRECTOR: Joseph Stefano
PRODUCTOR: Joseph Stefano
GUIÓN: Jim Kouf
MÚSICA: Dominic Frontiere
FOTOGRAFÍA: Conrad L. Hall
MONTAJE: Anthony DiMarco
REPARTO: Martin Landau, Judith Anderson, Diane Baker, Tom Simcox, Nellie Burt, Leonard Stone, Priscilla Morrill.
ARGUMENTO: Aterrorizada por la posibilidad de ser enterrada con vida, una mujer hace instalar un teléfono al alcance de la mano en su cripta con línea directa con la casa en la que vive su hijo ciego. Un día el teléfono suena. La familia decide pedir la ayuda de un arquitecto especialista en asustos del más allá.

------------------------------

Configuración del ripeo (vídeo / audio):

x264:
"C:\x264.exe" --preset veryslow --tune film --crf 19.4 --qcomp 0.57 --no-chroma-me --level 4.1 --output "C:\mi_ripeo.mkv" "C:\mi_script.avs"

QAAC (para AAC):
qaac -V 127 --ignorelength --adts --no-delay -o

------------------------------

Capturas

Imagen

Imagen

Imagen

Imagen

Imagen

Imagen


DATOS TÉCNICOS

Código: Seleccionar todo

Format : Matroska 
Format version : Version 4 
File size : 12.2 GiB 
Duration : 1 h 20 min 
Overall bit rate : 21.7 Mb/s 
Writing application : mkvmerge v31.0.0 ('Dolores In A Shoestand') 64-bit 
Writing library : libebml v1.3.6 + libmatroska v1.4.9 

Video 
ID : 1 
Format : AVC 
Format/Info : Advanced Video Codec 
Format profile : High@L4.1 
Format settings : CABAC / 5 Ref Frames 
Format settings, CABAC : Yes 
Format settings, RefFrames : 5 frames 
Codec ID : V_MPEG4/ISO/AVC 
Duration : 1 h 20 min 
Bit rate : 21.5 Mb/s 
Width : 1 440 pixels 
Height : 1 080 pixels 
Display aspect ratio : 4:3 
Frame rate mode : Constant 
Frame rate : 23.976 (24000/1001) FPS 
Color space : YUV 
Chroma subsampling : 4:2:0 
Bit depth : 8 bits 
Scan type : Progressive 
Bits/(Pixel*Frame) : 0.578 
Stream size : 12.1 GiB (99%) 
Writing library : x264 core 157 r2935 545de2f 
Encoding settings : cabac=1 / ref=5 / deblock=1:-1:-1 / analyse=0x3:0x133 / me=umh / subme=10 / psy=1 / psy_rd=1.00:0.15 / mixed_ref=1 / me_range=24 / chroma_me=0 / trellis=2 / 8x8dct=1 / cqm=0 / deadzone=21,11 / fast_pskip=1 / chroma_qp_offset=-3 / threads=6 / lookahead_threads=1 / sliced_threads=0 / nr=0 / decimate=1 / interlaced=0 / bluray_compat=0 / constrained_intra=0 / bframes=8 / b_pyramid=2 / b_adapt=2 / b_bias=0 / direct=3 / weightb=1 / open_gop=0 / weightp=2 / keyint=250 / keyint_min=23 / scenecut=40 / intra_refresh=0 / rc_lookahead=60 / rc=crf / mbtree=1 / crf=19.4 / qcomp=0.57 / qpmin=0 / qpmax=69 / qpstep=4 / ip_ratio=1.40 / aq=1:1.00 
Language : English 
Default : Yes 
Forced : No 

Audio 
ID : 2 
Format : AAC LC 
Format/Info : Advanced Audio Codec Low Complexity 
Codec ID : A_AAC-2 
Duration : 1 h 20 min 
Bit rate : 148 kb/s 
Channel(s) : 2 channels 
Channel layout : L R 
Sampling rate : 48.0 kHz 
Frame rate : 46.875 FPS (1024 SPF) 
Compression mode : Lossy 
Stream size : 85.5 MiB (1%) 
Language : English
Writing library : qaac 2.68, CoreAudioToolbox 7.10.9.0
Encoding settings : qaac -V 127 --ignorelength --adts --no-delay -o
VBR min./avg./max. : 4 / 150 / 254 Kb/s. 
Duration.......... : 4834.56 sec., (1h. 20m. 34.56s.) 
Default : Yes 
Forced : No 

Text #1 
ID : 3 
Format : UTF-8 
Codec ID : S_TEXT/UTF8 
Codec ID/Info : UTF-8 Plain Text 
Duration : 1 h 20 min 
Bit rate : 44 b/s 
Count of elements : 744 
Stream size : 26.2 KiB (0%) 
Language : Spanish 
Default : Yes 
Forced : No 

Text #2 
ID : 4 
Format : UTF-8 
Codec ID : S_TEXT/UTF8 
Codec ID/Info : UTF-8 Plain Text 
Duration : 1 h 17 min 
Bit rate : 43 b/s 
Count of elements : 741 
Stream size : 24.7 KiB (0%) 
Language : English 
Default : No 
Forced : No 

Text #3 
ID : 5 
Format : VobSub 
Muxing mode : zlib 
Codec ID : S_VOBSUB 
Codec ID/Info : Picture based subtitle format used on DVDs 
Duration : 1 h 17 min 
Bit rate : 5 135 b/s 
Count of elements : 741 
Stream size : 2.84 MiB (0%) 
Title : English Vobsubs 
Language : English 
Default : No 
Forced : No 

Menu 
00:00:00.000 : :Cpt. 01 
00:07:00.556 : :Cpt. 02 
00:14:37.762 : :Cpt. 03 
00:23:37.385 : :Cpt. 04 
00:34:17.357 : :Cpt. 05 
00:45:20.770 : :Cpt. 06 
00:53:42.772 : :Cpt. 07 
01:05:59.383 : :Cpt. 08





:arrow: BDRip V.O. 1080p, con subtítulos en español e inglés en el contenedor MKV (12.21 GBs):
The Ghost of Sierra de Cobre (Joseph Stefano, 1964) BDRip 1080p VO+SE/I

:arrow: Subtítulos por separado
, por si alguien los necesita para... (41 KBs):
Subtítulos castellanos
"La vida es en color, pero el blanco y negro es más realista"

ostrata
Mensajes: 1684
Registrado: Mié 24 Mar, 2010 17:29

Re: The Ghost of Sierra de Cobre (Joseph Stefano, 1964) HD 1080p VOSE

Mensaje por ostrata » Sab 16 Mar, 2019 22:27

Gracias. :)

Saludos.

Responder