Sink the Bismarck! (Lewis Gilbert, 1960) HD 1080p Dual SE

Publica y encuentra enlaces p2p de filmes hasta 1980 en esta sección.
Responder
Avatar de Usuario
roisiano
Polemista nato
Mensajes: 5550
Registrado: Dom 17 Jul, 2005 02:00
Ubicación: Al final del río

Sink the Bismarck! (Lewis Gilbert, 1960) HD 1080p Dual SE

Mensaje por roisiano » Dom 10 Mar, 2019 12:32

Hundid el Bismark (Sink the Bismarck!) (Lewis Gilbert, 1960)

Imagen
Imagen
Imagen
Imagen
Filmaffinity | IMDb

Guion: Edmund H. North (Libro: C.S. Forester)
Música: Clifton Parker
Fotografía: Christopher Challis (B&W)
Reparto: Kenneth More, Dana Wynter, Carl Möhner, Laurence Naismith, Karel Stepanek, Maurice Denham, Mark Dignam, Michael Goodliffe, Jack Gwillam, Michael Hordern, Geoffrey Keen, Esmond Knight, Jack Watling, Edward R. Murrow, Ernest Clark, John Horsley, Peter Burton, Sydney Tafler, John Stuart, Walter Hudd, Sean Barrett, David Hemmings, Bernard Lee, Ian Hendry
Productora: 20th Century Fox

Género; Bélico | Acción | II Guerra Mundial | Basado en hechos reales

Sinopsis:
Segunda Guerra Mundial (1939-1945). En la primavera de 1941, el Bismarck, el acorazado más temible de la armada alemana en el Atlántico, es perseguido por la Marina Real Británica. (FILMAFFINITY)



Gracias a quienes compartieron el BD.
Spoiler: mostrar
Dadas las (extrañas) circunstancias en las que actualmente parecemos movernos en el mundo p2p (en especial, en lo relativo a los trackers privados), de aquí en adelante haré "agradecimientos genéricos" a quienes compartieron la fuente original y no enlazaré a dicha fuente original en mis posts.
Disculpen las molestias
Detalles de la edición (3)


------------------------------

Configuración del ripeo (vídeo / audio):

x264:
"C:\x264.exe" --preset veryslow --tune film --crf 19.5 --qcomp 0.57 --no-chroma-me --level 4.1 --output "C:\mi_ripeo.mkv" "C:\mi_script.avs"

QAAC (para AAC):
qaac -V 127 --ignorelength --adts --no-delay -o

------------------------------


Imagen
Imagen
Imagen
Imagen
Imagen
Imagen
Imagen
Imagen
Imagen
Imagen
Imagen
Imagen

Código: Seleccionar todo

Format : Matroska 
Format version : Version 4 
File size : 14.7 GiB 
Duration : 1 h 37 min 
Overall bit rate : 21.5 Mb/s 
Writing application : mkvmerge v31.0.0 ('Dolores In A Shoestand') 64-bit 
Writing library : libebml v1.3.6 + libmatroska v1.4.9 

Video 
ID : 1 
Format : AVC 
Format/Info : Advanced Video Codec 
Format profile : High@L4.1 
Format settings : CABAC / 5 Ref Frames 
Format settings, CABAC : Yes 
Format settings, RefFrames : 5 frames 
Codec ID : V_MPEG4/ISO/AVC 
Duration : 1 h 37 min 
Bit rate : 21.1 Mb/s 
Width : 1 918 pixels 
Height : 816 pixels 
Display aspect ratio : 2.35:1 
Frame rate mode : Constant 
Frame rate : 23.976 (24000/1001) FPS 
Color space : YUV 
Chroma subsampling : 4:2:0 
Bit depth : 8 bits 
Scan type : Progressive 
Bits/(Pixel*Frame) : 0.564 
Stream size : 14.4 GiB (98%) 
Writing library : x264 core 157 r2935 545de2f 
Encoding settings : cabac=1 / ref=5 / deblock=1:-1:-1 / analyse=0x3:0x133 / me=umh / subme=10 / psy=1 / psy_rd=1.00:0.15 / mixed_ref=1 / me_range=24 / chroma_me=0 / trellis=2 / 8x8dct=1 / cqm=0 / deadzone=21,11 / fast_pskip=1 / chroma_qp_offset=-3 / threads=6 / lookahead_threads=1 / sliced_threads=0 / nr=0 / decimate=1 / interlaced=0 / bluray_compat=0 / constrained_intra=0 / bframes=8 / b_pyramid=2 / b_adapt=2 / b_bias=0 / direct=3 / weightb=1 / open_gop=0 / weightp=2 / keyint=250 / keyint_min=23 / scenecut=40 / intra_refresh=0 / rc_lookahead=60 / rc=crf / mbtree=1 / crf=19.5 / qcomp=0.57 / qpmin=0 / qpmax=69 / qpstep=4 / ip_ratio=1.40 / aq=1:1.00 
Language : English 
Default : Yes 
Forced : No 

Audio #1 
ID : 2 
Format : AAC LC 
Format/Info : Advanced Audio Codec Low Complexity 
Codec ID : A_AAC-2 
Duration : 1 h 37 min 
Bit rate : 144 kb/s 
Channel(s) : 2 channels 
Channel layout : L R 
Sampling rate : 48.0 kHz 
Frame rate : 46.875 FPS (1024 SPF) 
Compression mode : Lossy 
Stream size : 99.9 MiB (1%) 
Language : English 
Writing library : qaac 2.68, CoreAudioToolbox 7.10.9.0
Encoding settings : qaac -V 127 --ignorelength --adts --no-delay -o
VBR min./avg./max. : 4 / 145 / 286 Kb/s. 
Duration.......... : 5856.448 sec., (1h. 37m. 36.448s.)
Default : Yes 
Forced : No 

Audio #2 
ID : 3 
Format : AC-3 
Format/Info : Audio Coding 3 
Commercial name : Dolby Digital 
Codec ID : A_AC3 
Duration : 1 h 37 min 
Bit rate mode : Constant 
Bit rate : 192 kb/s 
Channel(s) : 2 channels 
Channel layout : L R 
Sampling rate : 48.0 kHz 
Frame rate : 31.250 FPS (1536 SPF) 
Bit depth : 16 bits 
Compression mode : Lossy 
Delay relative to video : 18 ms 
Stream size : 134 MiB (1%) 
Title : Doblaje para cines de 1960 
Language : Spanish 
Service kind : Complete Main 
Default : No 
Forced : No 

Text #1 
ID : 4 
Format : UTF-8 
Codec ID : S_TEXT/UTF8 
Codec ID/Info : UTF-8 Plain Text 
Duration : 1 h 37 min 
Bit rate : 73 b/s 
Count of elements : 1147 
Stream size : 52.6 KiB (0%) 
Title : Castellano 
Language : Spanish 
Default : Yes 
Forced : No 

Text #2 
ID : 5 
Format : UTF-8 
Codec ID : S_TEXT/UTF8 
Codec ID/Info : UTF-8 Plain Text 
Duration : 1 h 37 min 
Bit rate : 74 b/s 
Count of elements : 1411 
Stream size : 53.0 KiB (0%) 
Title : Español neutro 
Language : Spanish 
Default : No 
Forced : No 

Text #3 
ID : 6 
Format : UTF-8 
Codec ID : S_TEXT/UTF8 
Codec ID/Info : UTF-8 Plain Text 
Duration : 1 h 35 min 
Bit rate : 75 b/s 
Count of elements : 1130 
Stream size : 53.3 KiB (0%) 
Language : English 
Default : No 
Forced : No 

Text #4 
ID : 7 
Format : UTF-8 
Codec ID : S_TEXT/UTF8 
Codec ID/Info : UTF-8 Plain Text 
Duration : 1 h 36 min 
Bit rate : 76 b/s 
Count of elements : 1149 
Stream size : 53.8 KiB (0%) 
Title : English SDH 
Language : English 
Default : No 
Forced : No 

Text #5 
ID : 8 
Format : UTF-8 
Codec ID : S_TEXT/UTF8 
Codec ID/Info : UTF-8 Plain Text 
Duration : 1 h 37 min 
Bit rate : 1 b/s 
Count of elements : 29 
Stream size : 984 Bytes (0%) 
Title : Forzados 
Language : Spanish 
Default : No 
Forced : Yes 

Text #6 
ID : 9 
Format : VobSub 
Muxing mode : zlib 
Codec ID : S_VOBSUB 
Codec ID/Info : Picture based subtitle format used on DVDs 
Duration : 1 h 37 min 
Bit rate : 10.0 kb/s 
Count of elements : 1149 
Stream size : 6.99 MiB (0%) 
Title : English Vobsubs (SDH) 
Language : English 
Default : No 
Forced : No 

Menu 
00:00:00.000 : :Cpt. 01 
00:09:16.055 : :Cpt. 02 
00:19:22.203 : :Cpt. 03 
00:30:45.594 : :Cpt. 04 
00:39:50.763 : :Cpt. 05 
00:49:46.317 : :Cpt. 06 
01:00:02.933 : :Cpt. 07 
01:10:05.993 : :Cpt. 08 
01:19:35.479 : :Cpt. 09 
01:29:42.836 : :Cpt. 10




:arrow: BDRip Dual (V.O. - doblaje en castellano) 1080p, con subtítulos en español e inglés en el contenedor MKV (14.65 GBs)

:arrow: Subtítulos por separado
, por si alguien los necesita para... (145 KBs)


Los subtítulos en castellano son los de Candas (muchas gracias), corregidos, con unas cuantas líneas añadidas, y resincronizados para este ripeo.
Los subtítulos en español neutro son los de GrosoyGroso (gracias igualmente), también corregidos y resincronizados para este ripeo.

Para el doblaje, se tomó la pista de audio de un ripeo de Marc27 (muchas gracias también), que se ajustó también para este BDRip.
Me indica Santi(agoo) que la pista de doblaje se corresponde con el doblaje para cines de 1960.

Se ofrecen unos forzados para varias frases en alemán (Achtung! :mrgreen: ).



:arrow: Cómo buscar archivos en emule. Necesario para buscar lo anterior...





----------------------------------------------------


Imagen Imagen

Última versión del codec x264 (inglés) | Cómo crear BDRips MKV/x264 con UsEac3To + MeGui (español)
Manual de ripeo con x264 en línea de comandos (español) (1) (2) (3) | Parámetros de codificación (inglés)
Matroska en wikipedia (español) | MKVToolnix, herramientas de edición para matroska (inglés) | Añadir cadenas de audio o subtítulos con MKVToolnix (español)
gMKVExtractGUI (inglés) | MKVExtractGui (inglés) | Manual de extracción de cadenas de audio/vídeo/subtítulos en MKV (español)


---------------------------------------

Hundid el Bismark (Lewis Gilbert, 1960) DVDRip Dual SE
Hundid el Bismark (Gilbert, 1960) DVDRip VE
Hundid el Bismarck (Lewis Gilbert, 1960) DVDRip VOSE
Última edición por roisiano el Dom 10 Mar, 2019 23:11, editado 1 vez en total.
Florentino, fíchame.
Por 6.000 € netos mensuales te convierto en el mejor presidente de la historia.

Minyatur
Mensajes: 67
Registrado: Jue 30 Ene, 2003 01:00

Re: Sink the Bismarck! (Lewis Gilbert, 1960) HD 1080p Dual SE

Mensaje por Minyatur » Dom 10 Mar, 2019 13:09

Buenos días.
Muchas gracias por esta aportación. Me uno.

Saludos.

ostrata
Mensajes: 1686
Registrado: Mié 24 Mar, 2010 17:29

Re: Sink the Bismarck! (Lewis Gilbert, 1960) HD 1080p Dual SE

Mensaje por ostrata » Dom 10 Mar, 2019 17:57

Gracias. :)

Saludos.

joramor
Mensajes: 1461
Registrado: Vie 05 Nov, 2010 19:55

Re: Sink the Bismarck! (Lewis Gilbert, 1960) HD 1080p Dual SE

Mensaje por joramor » Dom 10 Mar, 2019 20:52

Muchas gracias Riosiano. Salu2.

Avatar de Usuario
paizoco
Mensajes: 2526
Registrado: Vie 21 Nov, 2003 01:00
Ubicación: Far West

Re: Sink the Bismarck! (Lewis Gilbert, 1960) HD 1080p Dual SE

Mensaje por paizoco » Lun 11 Mar, 2019 16:57

Me apunto, muchas gracias.

Responder