Mare Nostrum (Rafael Gil, 1948) SATRip VE

Publica y encuentra enlaces p2p de filmes hasta 1980 en esta sección.
Responder
DCINE
Mensajes: 349
Registrado: Mar 20 Dic, 2016 15:02

Mare Nostrum (Rafael Gil, 1948) SATRip VE

Mensaje por DCINE » Sab 09 Mar, 2019 09:07

Mare Nostrum (Alba de sangre)
(Alba di sangue)

1948

Imagen

Imagen


DIRECTOR: Rafael Gil
PRODUCTORA: Coproducción España-Italia; Suevia Films - Cesáreo González / Scalera Film S.p.a.
GUIÓN: Rafael Gil, Antonio Abad Ojuel (Novela: Vicente Blasco Ibañez)
MÚSICA: Juan Quintero
FOTOGRAFÍA: Alfredo Fraile



ARGUMENTO En septiembre de 1939, el mercante español "Mare Nostrum", capitaneado por Ulises Ferragut, entra en el puerto de Nápoles para reparar una avería. Paseando por Pompeya conoce a Freyra, una enigmática y bellísima mujer. Al instante se enamora perdidamente de ella, sin saber que la muchacha es una espía del III Reich. Pero ya es demasiado tarde. Ulises ha caído en su red, perdiendo el control de la situación. (FILMAFFINITY) IMDB: http://www.imdb.com/title/tt0040568/




ImagenImagen
ImagenImagen
ImagenImagen
Imagen




Reparto:
María Félix, Fernando Rey, Guillermo Marín, José Nieto, Juan Espantaleón, Porfiria Sanchiz, Eduardo Fajardo

Doblaje Cines 1948: www.eldoblaje.com/datos/FichaPelicula.asp?id=17914

Datos Técnicos:


Código: Seleccionar todo

 General:

Complete name                    : 1948 Mare Nostrum (Alba de sangre) (Alba di sangue) (Rafael Gil, 1948) SATRip VE (Doblaje Cines 1948) RTVE by DCINE.mkv
Format                           : Matroska
Format version                   : Version 4 / Version 2
File size                        : 1.04 GiB
Duration                         : 1h 24mn
Overall bit rate                 : 1 768 Kbps
Movie name                       : 1948 Mare Nostrum (Alba de sangre)/Alba di sangue (Rafael Gil, 1948) SATRip VE (Doblaje Cines 1948) RTVE by DCINE.mkv
Encoded date                     : UTC 2017-08-13T07:06:10Z
Writing application              : mkvmerge v7.1.0 ('Good Love') 32bit built on Jul 27 2014 12:59:18
Writing library                  : Lavf55.12.0
_STATISTICS_WRITING_APP          : mkvmerge v7.1.0 ('Good Love') 32bit built on Jul 27 2014 12:59:18
_STATISTICS_WRITING_DATE_UTC     : 2018-07-24 20:08:23
_STATISTICS_TAGS                 : BPS DURATION NUMBER_OF_FRAMES NUMBER_OF_BYTES
DURATION                         : 01:24:20.880000000
NUMBER_OF_FRAMES                 : 210870
NUMBER_OF_BYTES                  : 121461120

Video
ID                               : 1
Format                           : AVC
Format/Info                      : Advanced Video Codec
Format profile                   : High@L4.1
Format settings, CABAC           : Yes
Format settings, ReFrames        : 4 frames
Codec ID                         : V_MPEG4/ISO/AVC
Duration                         : 1h 24mn
Bit rate                         : 1 541 Kbps
Width                            : 716 pixels
Height                           : 570 pixels
Display aspect ratio             : 4:3
Frame rate mode                  : Variable
Frame rate                       : 25.000 fps
Color space                      : YUV
Chroma subsampling               : 4:2:0
Bit depth                        : 8 bits
Scan type                        : Progressive
Bits/(Pixel*Frame)               : 0.151
Stream size                      : 930 MiB (87%)
Writing library                  : x264 core 142 r2479 dd79a61
Encoding settings                : cabac=1 / ref=3 / deblock=1:0:0 / analyse=0x3:0x113 / me=hex / subme=7 / psy=1 / psy_rd=1.00:0.00 / mixed_ref=1 / me_range=16 / chroma_me=1 / trellis=1 / 8x8dct=1 / cqm=0 / deadzone=21,11 / fast_pskip=1 / chroma_qp_offset=-2 / threads=1 / lookahead_threads=1 / sliced_threads=0 / nr=0 / decimate=1 / interlaced=0 / bluray_compat=0 / constrained_intra=0 / bframes=3 / b_pyramid=2 / b_adapt=1 / b_bias=0 / direct=1 / weightb=1 / open_gop=0 / weightp=2 / keyint=250 / keyint_min=25 / scenecut=40 / intra_refresh=0 / rc_lookahead=40 / rc=crf / mbtree=1 / crf=20.0 / qcomp=0.60 / qpmin=0 / qpmax=69 / qpstep=4 / vbv_maxrate=62500 / vbv_bufsize=78125 / crf_max=0.0 / nal_hrd=none / filler=0 / ip_ratio=1.40 / aq=1:1.00
Language                         : Spanish
Default                          : Yes
Forced                           : No
_STATISTICS_WRITING_APP          : mkvmerge v7.1.0 ('Good Love') 32bit built on Jul 27 2014 12:59:18
_STATISTICS_WRITING_DATE_UTC     : 2018-07-24 20:08:23
_STATISTICS_TAGS                 : BPS DURATION NUMBER_OF_FRAMES NUMBER_OF_BYTES
DURATION                         : 01:24:20.640000000
NUMBER_OF_FRAMES                 : 126516
NUMBER_OF_BYTES                  : 996049001
Color primaries                  : BT.470-6 System B, BT.470-6 System G, BT.601-6 625, BT.1358 625, BT.1700 625 PAL, BT.1700 625 SECAM
Transfer characteristics         : BT.709-5, BT.1361
Matrix coefficients              : BT.601-6 525, BT.1358 525, BT.1700 NTSC, SMPTE 170M

Audio
ID                               : 2
Format                           : MPEG Audio
Format version                   : Version 1
Format profile                   : Layer 2
Codec ID                         : A_MPEG/L2
Codec ID/Hint                    : MP2
Duration                         : 1h 24mn
Bit rate mode                    : Constant
Bit rate                         : 192 Kbps
Channel(s)                       : 2 channels
Sampling rate                    : 48.0 KHz
Compression mode                 : Lossy
Delay relative to video          : -80ms
Stream size                      : 116 MiB (11%)
Title                            : Doblaje Cines 1948
Language                         : Spanish
Default                          : Yes
Forced                           : No




Capturas:

Imagen Imagen
Imagen Imagen
Imagen Imagen
Imagen Imagen
Imagen Imagen




Enlace:



1948 Mare Nostrum (Alba de sangre) (Alba di sangue) (Rafael Gil, 1948) SATRip VE (Doblaje Cines 1948) RTVE by DCINE.mkv

DD: https://mega.nz/#!w54GyIxb!Ud_t-UHWVw9b ... zVgMDvhs6Y

Otras copias en la web:

SATRip: viewtopic.php?f=1002&t=59385&hilit=mare+nostrum

ostrata
Mensajes: 1686
Registrado: Mié 24 Mar, 2010 17:29

Re: Mare Nostrum (Rafael Gil, 1948) SATRip VE

Mensaje por ostrata » Sab 09 Mar, 2019 09:36

Gracias. :)

Saludos.

Avatar de Usuario
Jolmart
Mensajes: 641
Registrado: Vie 03 Abr, 2015 14:02

Re: Mare Nostrum (Rafael Gil, 1948) SATRip VE

Mensaje por Jolmart » Sab 09 Mar, 2019 10:06

Grande, Espantaleon .

Muchas Gracias.
" De USA importamos todo, hasta las mentiras ".

Responder