The Sign of the Cross (Cecil B. DeMille, 1932) HD 720p Dual SE

Publica y encuentra enlaces p2p de filmes hasta 1980 en esta sección.
Responder
Avatar de Usuario
DMMD
Mensajes: 1667
Registrado: Lun 27 Feb, 2012 14:16

The Sign of the Cross (Cecil B. DeMille, 1932) HD 720p Dual SE

Mensaje por DMMD » Sab 16 Feb, 2019 15:15

Versión completa restaurada por la UCLA. (Versión Pre-Code)


Imagen

Imagen


El signo de la cruz


Título original The Sign of the Cross

Año 1932
Duración 124 min.
País Imagen
Dirección Cecil B. DeMille
Guion Waldemar Young, Sidney Buchman
Música Rudolph Kopp
Fotografía Karl Struss (B&W)
Reparto
Fredric March, Charles Laughton, Claudette Colbert, Elissa Landi, Ian Keith, Vivian Tobin, Nat Pendleton

Productora Paramount Pictures
Género Drama | Antigua Roma. Cine épico. Religión. Celos. Histórico
Sinopsis
Imperio Romano, siglo I d. C. Después del gran incendio de Roma, el emperador Nerón, decide culpar a los cristianos y publica un edicto por el cual todos ellos deberán ser arrestados y enviados a la arena del circo. Entre los detenidos se encuentran dos viejos cristianos y la hermosa hija de uno de ellos, de la que se enamora Marcus: el más alto funcionario de Roma. (FILMAFFINITY)

Premios1933: Nominada al Oscar: Mejor fotografía



-------------------------------Vídeo: --------------------------------

- Encode partiendo del bluray editado por la Elephant Films.

BR 720p Vs Bluray (Elephant Films)


Imagen Imagen Imagen Imagen Imagen Imagen Imagen Imagen Imagen Imagen Imagen Imagen

- Película bastante granulada.

- Definición correcta.

- La imagen está algo dañada con algunos rasguños y puntos blancos.


- Mejora bastante significativa en comparación con el DVD (Universal).

Imagen
Imagen

- La mejora en cuanto a nitidez es innegable, encuadre más espacioso en formato 1.37.

Código: Seleccionar todo

General
Unique ID                                : 206681904387842387688810021768471187767 (0x9B7D7CA302D9C3BEC387ACC564AF1137)
Complete name                            : D:\Incoming\1932-The.Sign.of.the.Cross.BRx264.720p.AAC.DMMD.mkv
Format                                   : Matroska
Format version                           : Version 4
File size                                : 8.36 GiB
Duration                                 : 2 h 5 min
Overall bit rate                         : 9 520 kb/s
Movie name                               : 1932-The.Sign.of.the.Cross.BRx264.720p.AAC.DMMD
Encoded date                             : UTC 2019-02-16 12:51:47
Writing application                      : mkvmerge v30.1.0 ('Forever And More') 64-bit
Writing library                          : libebml v1.3.6 + libmatroska v1.4.9
Attachments                              : 1 / 2 / 3

Video
ID                                       : 1
Format                                   : AVC
Format/Info                              : Advanced Video Codec
Format profile                           : High@L4.1
Format settings                          : CABAC / 11 Ref Frames
Format settings, CABAC                   : Yes
Format settings, RefFrames               : 11 frames
Codec ID                                 : V_MPEG4/ISO/AVC
Duration                                 : 2 h 5 min
Bit rate                                 : 9 196 kb/s
Width                                    : 970 pixels
Height                                   : 720 pixels
Display aspect ratio                     : 4:3
Frame rate mode                          : Constant
Frame rate                               : 23.976 (24000/1001) FPS
Color space                              : YUV
Chroma subsampling                       : 4:2:0
Bit depth                                : 8 bits
Scan type                                : Progressive
Bits/(Pixel*Frame)                       : 0.549
Stream size                              : 8.08 GiB (97%)
Title                                    : Elephant Films
Writing library                          : x264 core 152 r2851kMod ba24899
Encoding settings                        : cabac=1 / ref=11 / deblock=1:-3:-3 / analyse=0x3:0x133 / me=umh / subme=11 / psy=1 / fade_compensate=0.00 / psy_rd=1.07:0.02 / mixed_ref=1 / me_range=32 / chroma_me=0 / trellis=2 / 8x8dct=1 / cqm=0 / deadzone=21,11 / fast_pskip=0 / chroma_qp_offset=-3 / threads=6 / lookahead_threads=1 / sliced_threads=0 / nr=0 / decimate=0 / interlaced=0 / bluray_compat=0 / constrained_intra=0 / bframes=11 / b_pyramid=2 / b_adapt=2 / b_bias=0 / direct=3 / weightb=1 / open_gop=0 / weightp=2 / keyint=250 / keyint_min=23 / scenecut=40 / intra_refresh=0 / rc=crf / mbtree=0 / crf=18.0000 / qcomp=0.63 / qpmin=0 / qpmax=69 / qpstep=4 / ip_ratio=1.30 / pb_ratio=1.20 / aq=3:0.70
Language                                 : French
Default                                  : Yes
Forced                                   : No

Audio #1
ID                                       : 2
Format                                   : AAC LC
Format/Info                              : Advanced Audio Codec Low Complexity
Codec ID                                 : A_AAC-2
Duration                                 : 2 h 5 min
Bit rate                                 : 160 kb/s
Channel(s)                               : 2 channels
Channel layout                           : L R
Sampling rate                            : 48.0 kHz
Frame rate                               : 46.875 FPS (1024 SPF)
Compression mode                         : Lossy
Delay relative to video                  : 9 ms
Stream size                              : 143 MiB (2%)
Language                                 : English
Default                                  : Yes
Forced                                   : No

Audio #2
ID                                       : 3
Format                                   : AAC LC
Format/Info                              : Advanced Audio Codec Low Complexity
Codec ID                                 : A_AAC-2
Duration                                 : 2 h 5 min
Bit rate                                 : 160 kb/s
Channel(s)                               : 2 channels
Channel layout                           : L R
Sampling rate                            : 48.0 kHz
Frame rate                               : 46.875 FPS (1024 SPF)
Compression mode                         : Lossy
Delay relative to video                  : 9 ms
Stream size                              : 144 MiB (2%)
Language                                 : Spanish
Default                                  : No
Forced                                   : No

Text #1
ID                                       : 4
Format                                   : UTF-8
Codec ID                                 : S_TEXT/UTF8
Codec ID/Info                            : UTF-8 Plain Text
Duration                                 : 2 h 3 min
Bit rate                                 : 47 b/s
Count of elements                        : 1351
Stream size                              : 43.3 KiB (0%)
Language                                 : Spanish
Default                                  : Yes
Forced                                   : No

Text #2
ID                                       : 5
Format                                   : UTF-8
Codec ID                                 : S_TEXT/UTF8
Codec ID/Info                            : UTF-8 Plain Text
Duration                                 : 2 h 3 min
Bit rate                                 : 4 b/s
Count of elements                        : 122
Stream size                              : 4.22 KiB (0%)
Title                                    : Forzados
Language                                 : Spanish
Default                                  : No
Forced                                   : No

Text #3
ID                                       : 6
Format                                   : UTF-8
Codec ID                                 : S_TEXT/UTF8
Codec ID/Info                            : UTF-8 Plain Text
Duration                                 : 2 h 0 min
Bit rate                                 : 52 b/s
Count of elements                        : 1434
Stream size                              : 45.9 KiB (0%)
Language                                 : English
Default                                  : No
Forced                                   : No

Menu
00:00:00.000                             : :Chapter 1
00:07:46.500                             : :Chapter 2
00:12:22.566                             : :Chapter 3
00:19:46.033                             : :Chapter 4
00:30:11.533                             : :Chapter 5
00:35:58.333                             : :Chapter 6
00:43:19.366                             : :Chapter 7
00:53:59.933                             : :Chapter 8
01:05:35.633                             : :Chapter 9
01:12:05.233                             : :Chapter 10
01:18:22.499                             : :Chapter 11
01:24:22.233                             : :Chapter 12
01:32:26.933                             : :Chapter 13
01:36:28.999                             : :Chapter 14
01:40:51.432                             : :Chapter 15
01:51:05.099                             : :Chapter 16
01:59:40.732                             : :Chapter 17
02:04:51.865                             : :Chapter 18
Imagen

-----------------------------------------------Audios y subtítulos---------------------------------------------

- Para la V.O. audio AAC pasado del Blu-ray ( DTS-HD Master Audio 2.0)


- Audio, subtítulos completos y forzados en castellano y completos en inglés.

- Añadidos capítulos del Dvd.



CAPTURAS

Imagen
Imagen
Imagen
Imagen
Imagen
Imagen
Imagen



Enlaces de descarga

Imagen

1932-The.Sign.of.the.Cross.BRx264.720p.AAC.DMMD.mkv


Imagen

ostrata
Mensajes: 1749
Registrado: Mié 24 Mar, 2010 17:29

Re: The Sign of the Cross (Cecil B. DeMille, 1932) HD 720p Dual SE

Mensaje por ostrata » Sab 16 Feb, 2019 15:46

Gracias. :)

Saludos.

Avatar de Usuario
Spanish Jhonny
Mensajes: 2518
Registrado: Mar 18 Sep, 2012 16:01

Re: The Sign of the Cross (Cecil B. DeMille, 1932) HD 720p Dual SE

Mensaje por Spanish Jhonny » Sab 16 Feb, 2019 16:09

Fantástico DMMD
Muchas gracias :plas: :plas:

Avatar de Usuario
janca
Mensajes: 2073
Registrado: Dom 20 Dic, 2009 09:31

Re: The Sign of the Cross (Cecil B. DeMille, 1932) HD 720p Dual SE

Mensaje por janca » Sab 16 Feb, 2019 17:46

Muchas gracias DMMD

Antonio75
Mensajes: 159
Registrado: Vie 20 Sep, 2013 15:53

Re: The Sign of the Cross (Cecil B. DeMille, 1932) HD 720p Dual SE

Mensaje por Antonio75 » Dom 17 Feb, 2019 01:16

Un clásico maravilloso que conviene revisitar de vez en cuando para recordar lo grande que era el cine en épocas pretéritas. Muchas gracias.

Avatar de Usuario
davinci1405
Mensajes: 478
Registrado: Mié 09 Dic, 2009 01:11

Re: The Sign of the Cross (Cecil B. DeMille, 1932) HD 720p Dual SE

Mensaje por davinci1405 » Dom 17 Feb, 2019 03:52

Muchas gracias, DMMD.
"Sólo dos cosas son infinitas, el universo y la estupidez humana... y no estoy seguro de lo primero". Albert Einstein

Avatar de Usuario
Mercedes
Mensajes: 2510
Registrado: Vie 18 May, 2007 14:59
Ubicación: Al Sur

Re: The Sign of the Cross (Cecil B. DeMille, 1932) HD 720p Dual SE

Mensaje por Mercedes » Dom 17 Feb, 2019 07:54

Maravilloso trabajo, compañero. ImagenImagenImagen
Imagen
Y el mundo está lleno de mujeres y hombres buenos...
"Girasoles" de Rozalén

Avatar de Usuario
paizoco
Mensajes: 2555
Registrado: Vie 21 Nov, 2003 01:00
Ubicación: Far West

Re: The Sign of the Cross (Cecil B. DeMille, 1932) HD 720p Dual SE

Mensaje por paizoco » Dom 17 Feb, 2019 22:57

Me apunto, muchas gracias por el trabajo.

dilsondefreitas
Mensajes: 42
Registrado: Sab 10 Ago, 2013 15:19

Re: The Sign of the Cross (Cecil B. DeMille, 1932) HD 720p Dual SE

Mensaje por dilsondefreitas » Lun 11 Mar, 2019 01:08

muito obrigado por este post

Avatar de Usuario
elmajete
Mensajes: 927
Registrado: Vie 18 May, 2007 22:05

Re: The Sign of the Cross (Cecil B. DeMille, 1932) HD 720p Dual SE

Mensaje por elmajete » Mié 13 Mar, 2019 18:29

Muchas gracias DMMD por compartir :plas: :plas: :plas:

Avatar de Usuario
carrido
Mensajes: 359
Registrado: Mié 19 Feb, 2014 15:58
Ubicación: Freedonia

Re: The Sign of the Cross (Cecil B. DeMille, 1932) HD 720p Dual SE

Mensaje por carrido » Mié 20 Mar, 2019 15:55

Muchísimas gracias DMMD;por esta sensacional/fabulosa mejora de esta joya de C.B. DeMille.Cambiando copia volando!!!!.

:plas: :plas: :plas: :plas: :plas: :plas: :plas: :plas: :plas: :plas:
Carrido

Responder