Battle of Britain (Guy Hamilton, 1969) HD 1080p Dual SE

Publica y encuentra enlaces p2p de filmes hasta 1980 en esta sección.
Avatar de Usuario
baldomp
Mensajes: 69
Registrado: Mar 15 Ago, 2017 12:55

Re: Battle of Britain (Guy Hamilton, 1969) HD 1080p Dual SE

Mensaje por baldomp » Vie 25 Ene, 2019 07:17

roisiano escribió:
Jue 24 Ene, 2019 22:44
Yo también quiero participar :mrgreen: ....
...
...
Y muy bien "participado". Muy muy de acuerdo en la gran mayoría de tan fantástica explicación. Claro que... aunque hablamos de técnica , hablamos de algo parametrizable. A partir de esta última premisa ya está claro que habrá practicamente tantos "métodos" como cerebros haya en la tarea :wink: . Lo bueno de estos "talleres literarios" es que nos muestran errores (y aciertos) que nos ayudan a rectificarnos (y continuar)

Efectivamente el Sr Kush, al que no tengo el gusto de conocer :roll: , fué muy "espabilao" :mrgreen: cogió un valor constante inherente al stream (píxeles ancho*píxeles alto*framerate) que no es ni más ni menos de "cantidad de datos a mover" y el muy listo se lió a probar (no hay otra) y llegó a un factor multiplicativo de 0.07 como base (de "agradabilidad visual") y luego, más espabilamiento, se planteó que si había acción y aparecian macrobloques pues... ¡mejor multiplicar por 4! (¿y por qué no por 5... pues... ¿por la rima? (:-) (:-) ?) y si la peli era de Garci (mis disculpas por la broma) pues... sobraba por multiplicar por 2. Desde este punto de vista, esto no es más que el "a ojímetro" que dices y todos aplican/aplicamos, porque no es más que la búsqueda de una cierta.. "percepción agradable" bajo unos mínimos. Como explicaba hay que tomar la fórmula (que ya de entrada él define como "calibre" y no fórmula) como eso... como un punto de partida: "La media de bebedores de café echan dos cucharadas de azucar, si lo quieres más dulce echa una más :wacky: "

No estoy seguro de que el asunto para quien se mete en estos berengenales sea "que te la bajen mucho". El... asunto (que va cambiando a dios gracias, y a los chinos abaratadores :sonrisa: ) ha sido siempre... "que ahorre en ancho de banda" o "que entre en el medio de transporte". Yo personalmente las hago para mí, con las consideraciones de exigencia que me satisfacen ( y funcionan con mi hard) y entonces lo comparto, para que otros lo disfruten.

En cualquier caso, QF's, QR's .. CRF's (al fin y a la postre este último es una búsqueda de un "ojímetro" o "ponderación que satisfaga", ya gestionado esta vez por el codec) no deja de ser eso: una búsqueda, una ponderación, un "me baso en esto porque mi experiencia" (como la que acertadamente cuentas con el grano, que yo comparto, y es obvia, porque el proceso puede tratar el grano como un objeto más 8) ). Así que seguiremos en estas lides una y cien veces, créeme, sólo hay que ir unos años atrás en este mismo foro y veremos DVDRips y "muchas gracias... lo tenía en mala calidad". Y en sentido contrario... te bajas ahora mismo un stream 4K (real... nada de "toqueteos") y salvo que tengas un servidor de los de Google a muchos mortales se les va a "atascar" en alguna escena :cabezon: si lo reproduce en un PC (ergo... al sr Kush se le olvidó una constante de "potencia del procesador" .. ¡mira! ... ¿creamos el corolario baldo/roisiano? :twisted: :twisted: :twisted: ).
Imagen
(:-) (:-) (:-) (:-) (:-) (:-)
Hasta que la siguiente unidad de almacenamiento/transmisión (el Petabyte ó Petabit/sg, y aquí no estoy de broma.. je!) aparezca, y entonces reine el "sincompresión" (porque, no olvidemos, el cinematógrafo a sus 24 fotos fijas por segundo es el sistema perfecto) . Hasta entonces... tendremos que ir armados de nuestros criterios.

un placer!!!!!!

PD. Si supiera el Sr Hamilton la riqueza que ha creado con su película... Mmm... a todos esto... la subí a instancias de un comentario de Dardo y recordé "yo tengo una por ahí...". Quero decir... que realmente del Sr. Kush estoy divorciado (bueno ... nos hemos dado un tiempo (:-) ) ultimamente ...

 

Avatar de Usuario
baldomp
Mensajes: 69
Registrado: Mar 15 Ago, 2017 12:55

Re: Battle of Britain (Guy Hamilton, 1969) HD 1080p Dual SE

Mensaje por baldomp » Sab 16 Feb, 2019 23:50

Bueno...

Como tuviste la amabilidad de hacerme llegar vuestras opiniones, y puesto que cuando más opciones se tenga, mejor. Os hago llegar un enlace de la película recodificada, esta vez con un CRF (19... despues de haber hecho un escalado de prueba con varios parámetros)

De nuevo el Sr. Caine posando para vuestro conocimiento óptico:

Imagen

Imagen

Imagen

Tened presente que, en cualquier caso, el grano en esta película es notorio, y es el que es. Sobre este aspecto físico no hay control. Tened presente tambien que hay en ocasiones un cierto realce de bordes que no ha sido añadido por el reproceso, sino que ya formaba parte de la imagen en el BR de MGM. Podeis ver ambas características en las siguientes imágenes de la propia review de "bluray.com",
Spoiler: mostrar
Imagen
Imagen
(a mi... personalmente me parece más resultado de la máscara de sobre-impresión de la imagen de fondo)
Imagen

Código: Seleccionar todo

File size                                : 12.4 GiB
Duration                                 : 2 h 12 min
Overall bit rate                         : 13.5 Mb/s
Encoded date                             : UTC 2019-02-15 19:15:56
Writing application                      : mkvmerge v12.0.0 ('Trust / Lust') 64bit
Writing library                          : libebml v1.3.4 + libmatroska v1.4.5

Video
ID                                       : 7
Format                                   : AVC
Format/Info                              : Advanced Video Codec
Format profile                           : Main@L4
Format settings                          : CABAC / 4 Ref Frames
Format settings, CABAC                   : Yes
Format settings, RefFrames               : 4 frames
Codec ID                                 : V_MPEG4/ISO/AVC
Duration                                 : 2 h 6 min
Bit rate                                 : 13.6 Mb/s
Width                                    : 1 920 pixels
Height                                   : 818 pixels
Display aspect ratio                     : 2.35:1
Frame rate mode                          : Constant
Frame rate                               : 23.976 FPS
Color space                              : YUV
Chroma subsampling                       : 4:2:0
Bit depth                                : 8 bits
Scan type                                : Progressive
Bits/(Pixel*Frame)                       : 0.360
Stream size                              : 12.0 GiB (97%)
Writing library                          : x264 core 157 r2935 545de2f
Encoding settings                        : cabac=1 / ref=3 / deblock=1:-1:-1 / analyse=0x1:0x111 / me=hex / subme=7 / psy=1 / psy_rd=1.00:0.15 / mixed_ref=1 / me_range=16 / chroma_me=1 / trellis=1 / 8x8dct=0 / cqm=0 / deadzone=21,11 / fast_pskip=1 / chroma_qp_offset=-3 / threads=3 / lookahead_threads=1 / sliced_threads=0 / nr=0 / decimate=1 / interlaced=0 / bluray_compat=0 / constrained_intra=0 / bframes=3 / b_pyramid=2 / b_adapt=1 / b_bias=0 / direct=1 / weightb=1 / open_gop=0 / weightp=2 / keyint=240 / keyint_min=24 / scenecut=40 / intra_refresh=0 / rc_lookahead=40 / rc=crf / mbtree=1 / crf=19.0 / qcomp=0.60 / qpmin=0 / qpmax=69 / qpstep=4 / vbv_maxrate=20000 / vbv_bufsize=25000 / crf_max=0.0 / nal_hrd=none / filler=0 / ip_ratio=1.40 / aq=1:1.00
Default                                  : Yes
Forced                                   : No
Color range                              : Limited
Color primaries                          : BT.709
Transfer characteristics                 : BT.709
Matrix coefficients                      : BT.709

Audio #1
ID                                       : 1
Format                                   : AC-3
Format/Info                              : Audio Coding 3
Commercial name                          : Dolby Digital
Codec ID                                 : A_AC3
Duration                                 : 2 h 12 min
Bit rate mode                            : Constant
Bit rate                                 : 224 kb/s
Channel(s)                               : 6 channels
Channel layout                           : L R C LFE Ls Rs
Sampling rate                            : 48.0 kHz
Frame rate                               : 31.250 FPS (1536 SPF)
Bit depth                                : 16 bits
Compression mode                         : Lossy
Stream size                              : 212 MiB (2%)
Title                                    : Castellano
Language                                 : Spanish
Service kind                             : Complete Main
Default                                  : Yes
Forced                                   : Yes

Audio #2
ID                                       : 4
Format                                   : AC-3
Format/Info                              : Audio Coding 3
Commercial name                          : Dolby Digital
Codec ID                                 : A_AC3
Duration                                 : 2 h 12 min
Bit rate mode                            : Constant
Bit rate                                 : 224 kb/s
Channel(s)                               : 6 channels
Channel layout                           : L R C LFE Ls Rs
Sampling rate                            : 48.0 kHz
Frame rate                               : 31.250 FPS (1536 SPF)
Bit depth                                : 16 bits
Compression mode                         : Lossy
Stream size                              : 212 MiB (2%)
Title                                    : English
Language                                 : English
Service kind                             : Complete Main
Default                                  : No
Forced                                   : No

Text #1
ID                                       : 2
Format                                   : UTF-8
Codec ID                                 : S_TEXT/UTF8
Codec ID/Info                            : UTF-8 Plain Text
Duration                                 : 2 h 11 min
Bit rate                                 : 39 b/s
Count of elements                        : 1117
Stream size                              : 38.2 KiB (0%)
Title                                    : Castellano
Language                                 : Spanish
Default                                  : No
Forced                                   : No

Text #2
ID                                       : 3
Format                                   : UTF-8
Codec ID                                 : S_TEXT/UTF8
Codec ID/Info                            : UTF-8 Plain Text
Duration                                 : 2 h 11 min
Bit rate                                 : 9 b/s
Count of elements                        : 245
Stream size                              : 9.18 KiB (0%)
Title                                    : Castellano, forzados
Language                                 : Spanish
Default                                  : Yes
Forced                                   : Yes

Text #3
ID                                       : 5
Format                                   : UTF-8
Codec ID                                 : S_TEXT/UTF8
Codec ID/Info                            : UTF-8 Plain Text
Duration                                 : 2 h 9 min
Bit rate                                 : 43 b/s
Count of elements                        : 1206
Stream size                              : 41.2 KiB (0%)
Title                                    : English
Language                                 : English
Default                                  : No
Forced                                   : No

Text #4
ID                                       : 6
Format                                   : UTF-8
Codec ID                                 : S_TEXT/UTF8
Codec ID/Info                            : UTF-8 Plain Text
Duration                                 : 2 h 9 min
Bit rate                                 : 6 b/s
Count of elements                        : 209
Stream size                              : 6.52 KiB (0%)
Title                                    : English, forzed
Language                                 : English
Default                                  : No
Forced                                   : No

Menu
00:00:00.000                             : en:Start
00:12:17.319                             : en:Preparations
00:13:40.736                             : en:"What's Stopping You?"
00:16:49.008                             : en:Flight Training
00:20:39.363                             : en:Bad Odds & Prayers
00:25:16.264                             : en:Jackdaw Inn
00:31:11.953                             : en:The German Strategy
00:36:49.040                             : en:Entering Ground Raids
00:38:14.041                             : en:First the Radar...
00:42:17.618                             : en:...Then the Airfields
00:46:28.702                             : en:Squadron Scramble
00:50:31.445                             : en:Assessing the Toil
00:54:49.327                             : en:An Easy Victory
01:00:05.184                             : en:They're Coming Back
01:02:20.570                             : en:Momentary Security
01:07:43.017                             : en:"Just Blew Up!"
01:13:54.596                             : en:Losing the Battle
01:15:44.873                             : en:Shy Interlude
01:19:58.126                             : en:Bombs Over Berlin
01:22:25.023                             : en:Hitler's Propaganda
01:27:01.382                             : en:London Is Burning
01:30:31.634                             : en:Safe Harbor
01:37:09.865                             : en:Language Barriers
01:40:03.247                             : en:A Big German Blunder?
01:46:46.149                             : en:Objective: Destroy RAF
01:54:40.206                             : en:Bad News & Good Flyers
02:03:29.443                             : en:The Right Numbers
02:09:08.240                             : en:"End of the Beginning"
Si os sirve... me alegro. Es lo que tengo (y el que da lo que tiene.....). Saludos y gracias a todos por ser tan participativos...

1969_Battle of Britain (la batalla de Inglaterra) BRRip 1080p Dual (Spa&Eng) (V2.0 - CRF19) Subs by baldomp.mkv

Avatar de Usuario
piakito bishop
Mensajes: 110
Registrado: Dom 03 Ene, 2010 00:08

Re: Battle of Britain (Guy Hamilton, 1969) HD 1080p Dual SE

Mensaje por piakito bishop » Dom 17 Feb, 2019 13:32

Me apunto a este upgrade. Aquí su percibe un gran espíritu de superación. :plas:
Muchas gracias baldomp :D

pcero
Aprendiz
Mensajes: 630
Registrado: Lun 15 Nov, 2004 01:00

Re: Battle of Britain (Guy Hamilton, 1969) HD 1080p Dual SE

Mensaje por pcero » Dom 17 Feb, 2019 19:05

Yo también me apunto al v2
Muchas gracias

Avatar de Usuario
bull
Mensajes: 204
Registrado: Lun 23 Sep, 2013 14:22

Re: Battle of Britain (Guy Hamilton, 1969) HD 1080p Dual SE

Mensaje por bull » Mié 20 Feb, 2019 12:25

Pues vengan esos 12,44Gb jajajaja.
Muchas gracias baldomp.
Saludos.

Makoto007
Mensajes: 1
Registrado: Mar 26 Feb, 2019 05:00

Re: Battle of Britain (Guy Hamilton, 1969) HD 1080p Dual SE

Mensaje por Makoto007 » Mié 27 Feb, 2019 17:29

Muchas gracias por el aporte.

Avatar de Usuario
eulsus
Mensajes: 851
Registrado: Vie 18 May, 2007 10:41
Ubicación: La Palma

Re: Battle of Britain (Guy Hamilton, 1969) HD 1080p Dual SE

Mensaje por eulsus » Mié 13 Mar, 2019 19:07

Posado de Michael Caine en el nuevo ripeo de baldomp.
Imagen

Comparativa que puso Dardo de los posados del ripeo antiguo de baldomp (a la izquierda) y de otro ripeo
Imagen

La mejora del nuevo ripeo es muy notable. También es cierto que casi se duplicó el peso del ripeo.
:sonrisa:
Imagen
Antonio García-Trevijano Forte (1927-2018)
"Para que yo sea libre, todos tienen que ser libres"

Abstención activa hasta que haya Libertad Colectiva

Avatar de Usuario
eulsus
Mensajes: 851
Registrado: Vie 18 May, 2007 10:41
Ubicación: La Palma

Re: Battle of Britain (Guy Hamilton, 1969) HD 1080p Dual SE

Mensaje por eulsus » Jue 14 Mar, 2019 00:09

Unas capturas adicionales, a las 3 que subió baldomp de su segundo ripeo (he intentado que fueran similares a las que había subido en el primero y algunas más de propinilla):

Imagen

Imagen

Imagen

Imagen

Imagen

Imagen

Imagen
Imagen
Antonio García-Trevijano Forte (1927-2018)
"Para que yo sea libre, todos tienen que ser libres"

Abstención activa hasta que haya Libertad Colectiva

Responder