Furtivos (José Luis Borau, 1975) BDRip 720p

Publica y encuentra enlaces p2p de filmes hasta 1980 en esta sección.
Avatar de Usuario
Gorchakov

Mensajes: 373
Registrado: Sab 10 Jun, 2006 01:28

Furtivos (José Luis Borau, 1975) BDRip 720p

Mensajepor Gorchakov » Sab 11 Ago, 2018 12:20

FURTIVOS
José Luis Borau, 1975
IMDb | filmaffinity


Imagen


FICHA TÉCNICA Y ARTÍSTICA
Año: 1975
País: España
Género: Drama
Duración: 82 minutos
Dirección: José Luis Borau
Guion: Manuel Gutiérrez Aragón y José Luis Borau
Fotografía: Luis Cuadrado
Montaje: Ana Romero-Marchent
Música: Vainica Doble
Director de producción: Primitivo Álvaro
Reparto: Lola Gaos (Martina), Ovidi Montllor (Ángel), Alicia Sánchez (Milagros), Ismael Merlo (cura), José Luis Borau (gobernador), Felipe Solano (Cuqui), José Luis Heredia (secretario), Antonio Gamero (guarda)


SINOPSIS
Ángel (Ovidi Montllor) es un cazador furtivo que vive en un bosque con su madre (Lola Gaos), una mujer tiránica y violenta. En uno de sus escasos viajes a la ciudad, conoce a Milagros (Alicia Sánchez), una chica que ha huido de un reformatorio y que es la amante de un delincuente llamado El Cuqui. Ángel la protege y la lleva a su casa. La animosidad de la madre hacia Milagros, así como la atracción que Ángel siente hacia ella desembocarán en un drama.



ImagenImagenImagen
ImagenImagenImagen
ImagenImagenImagen
ImagenImagenImagen


DATOS TÉCNICOS COMPLETOS
Spoiler: mostrar

Código: Seleccionar todo

General
Complete name               : D:\Furtivos.1975.Borau.BDRip.720p.x264.AC3.VO.mkv
Format                      : Matroska
Format version              : Version 1
File size                   : 3.02 GiB
Duration                    : 1h 23mn
Overall bit rate            : 5 206 Kbps
Encoded date                : UTC 2018-08-09 19:55:16
Writing application         : mkvmerge v2.5.3 ('Boogie') built on Mar  7 2009 15:00:41
Writing library             : libebml v0.7.7 + libmatroska v0.8.1

Video
ID                          : 1
Format                      : AVC
Format/Info                 : Advanced Video Codec
Format profile              : High@L4
Format settings, CABAC      : Yes
Format settings, ReFrames   : 8 frames
Codec ID                    : V_MPEG4/ISO/AVC
Duration                    : 1h 23mn
Bit rate                    : 4 910 Kbps
Width                       : 1 200 pixels
Height                      : 720 pixels
Display aspect ratio        : 5:3
Frame rate mode             : Constant
Frame rate                  : 24.000 fps
Color space                 : YUV
Chroma subsampling          : 4:2:0
Bit depth                   : 8 bits
Scan type                   : Progressive
Bits/(Pixel*Frame)          : 0.237
Stream size                 : 2.85 GiB (94%)
Language                    : Spanish
Default                     : Yes
Forced                      : No
Color range                 : Limited
Color primaries             : BT.709
Transfer characteristics    : BT.709
Matrix coefficients         : BT.709

Audio
ID                          : 2
Format                      : AC-3
Format/Info                 : Audio Coding 3
Mode extension              : CM (complete main)
Format settings, Endianness : Big
Codec ID                    : A_AC3
Duration                    : 1h 23mn
Bit rate mode               : Constant
Bit rate                    : 192 Kbps
Channel(s)                  : 6 channels
Channel positions           : Front: L C R, Side: L R, LFE
Sampling rate               : 48.0 KHz
Compression mode            : Lossy
Delay relative to video     : 17ms
Stream size                 : 114 MiB (4%)
Language                    : Spanish
Default                     : Yes
Forced                      : No


ENLACE EMULE
BDRip en versión original (español) a partir del Blu-ray de Divisa
Furtivos.1975.Borau.BDRip.720p.x264.AC3.VO.mkv [3.02 Gb] [Info]

EXTRAS
Qué Grande Es El Cine #70. Furtivos (José Luis Borau, 1975) [coloquio completo] [3-6-1996].avi [232.38 Mb] [Info]
Presentación de Furtivos en el programa de TVE "Historia de nuestro cine", por Carlos F. Heredero
"Censores contra un bosque", artículo de Diego Galán


[ Añade 2 enlaces a eMule ]
"Abajo la reflexión y muera el juicio. ¡Viva la Feliz Gobernación!"

Volver a “Cine Clásico”

¿Quién está conectado?

Usuarios navegando por este Foro: Yahoo [Bot] y 3 invitados