Tierra (Julio Medem, 1996) BDRip 720p

Foro orientado a películas de calidad posteriores a 1980. Publica sólo BDRips, DVDRips o TVRips (no Screeners, CAMs, etc.).
Avatar de Usuario
Gorchakov

Mensajes: 373
Registrado: Sab 10 Jun, 2006 01:28

Tierra (Julio Medem, 1996) BDRip 720p

Mensajepor Gorchakov » Jue 09 Ago, 2018 11:59

TIERRA
Julio Medem, 1996
IMDb | filmaffinity | juliomedem.org


Imagen


FICHA TÉCNICA Y ARTÍSTICA
Año: 1996
País: España
Género: Drama
Duración: 125 minutos
Dirección: Julio Medem
Guion: Julio Medem
Fotografía: Javier Aguirresarobe
Montaje: Iván Aledo
Música: Alberto Iglesias
Dirección de arte: Satur Idarreta
Producción: Fernando de Garcillán
Reparto: Carmelo Gómez (Ángel), Emma Suárez (Ángela), Silke (Mari), Karra Elejalde (Patricio), Nancho Novo (Alberto), Txema Blasco (Tomás), Ane Sánchez (Ángela hija), Juan José Suárez "Paquete" (Manuel), Ricardo Amador (Charly), Pepe Viyuela (el pastor Ulloa), Vicente Haro (Alcalde), César Vea (Mildo), Miguel Palenzuela (tío de Ángel).


SINOPSIS
Ángel, un joven que se cree a sí mismo medio hombre-medio ángel, llega a una solitaria comarca vinícola con el encargo de fumigar las viñas y acabar con una plaga de cochinilla, insecto que está inculcando al vino un extraño sabor a tierra. Allí conoce a dos mujeres muy diferentes que atribularán su difícil (y doble) personalidad. Una de ellas es Ángela, madre de familia, tímida y sencilla; la otra es Mari, ardiente, sensual y de una fogosidad incontrolable. Ángel y su hiperexcitable imaginación revolucionarán la estancada vida del pueblo, haciendo que afloren viejos rencores de amor y muerte mientras él se debate entre las dos mujeres.



ImagenImagenImagen
ImagenImagenImagen
ImagenImagenImagen
ImagenImagenImagen


DATOS TÉCNICOS COMPLETOS
Spoiler: mostrar

Código: Seleccionar todo

General
Complete name               : D:Tierra.1996.Medem.BDRip.x264.720p.AC3.VO.mkv
Format                      : Matroska
Format version              : Version 1
File size                   : 3.72 GiB
Duration                    : 2h 2mn
Overall bit rate            : 4 329 Kbps
Encoded date                : UTC 2018-08-01 16:48:03
Writing application         : mkvmerge v2.5.3 ('Boogie') built on Mar  7 2009 15:00:41
Writing library             : libebml v0.7.7 + libmatroska v0.8.1

Video
ID                          : 1
Format                      : AVC
Format/Info                 : Advanced Video Codec
Format profile              : High@L5
Format settings, CABAC      : Yes
Format settings, ReFrames   : 8 frames
Codec ID                    : V_MPEG4/ISO/AVC
Duration                    : 2h 2mn
Bit rate                    : 3 923 Kbps
Width                       : 1 696 pixels
Height                      : 720 pixels
Display aspect ratio        : 2.35:1
Frame rate mode             : Constant
Frame rate                  : 23.976 fps
Color space                 : YUV
Chroma subsampling          : 4:2:0
Bit depth                   : 8 bits
Scan type                   : Progressive
Bits/(Pixel*Frame)          : 0.134
Stream size                 : 3.37 GiB (91%)
Language                    : Spanish
Default                     : Yes
Forced                      : No
Color range                 : Limited
Color primaries             : BT.709
Transfer characteristics    : BT.709
Matrix coefficients         : BT.709

Audio
ID                          : 2
Format                      : AC-3
Format/Info                 : Audio Coding 3
Format profile              : Dolby Digital
Mode extension              : CM (complete main)
Format settings, Endianness : Big
Codec ID                    : A_AC3
Duration                    : 2h 2mn
Bit rate mode               : Constant
Bit rate                    : 320 Kbps
Channel(s)                  : 2 channels
Channel positions           : Front: L R
Sampling rate               : 48.0 KHz
Compression mode            : Lossy
Delay relative to video     : 15ms
Stream size                 : 281 MiB (7%)
Language                    : Spanish
Default                     : Yes
Forced                      : No


ENLACE EMULE
BDRip en versión original (español) a partir del Blu-ray de Olive Films
Tierra.1996.Medem.BDRip.x264.720p.AC3.VO.mkv [3.72 Gb] [Info]


Imagen

EXTRAS
Alberto Iglesias - Tierra (Banda Sonora Original) [1996].rar [51.02 Mb] [Info]
"Tierra. Memoria de la película", por Julio Medem
Making of de "Tierra", dirigido por Juanma Bajo Ulloa


[ Añade 2 enlaces a eMule ]
"Abajo la reflexión y muera el juicio. ¡Viva la Feliz Gobernación!"

Avatar de Usuario
duegno

Mensajes: 247
Registrado: Dom 28 Ago, 2011 13:28

Re: Tierra (Julio Medem, 1996) BDRip 720p

Mensajepor duegno » Jue 09 Ago, 2018 21:07

Gracias

henri1959

Mensajes: 119
Registrado: Mié 30 Nov, 2016 14:08

Re: Tierra (Julio Medem, 1996) BDRip 720p

Mensajepor henri1959 » Mar 14 Ago, 2018 19:39

muchas gracias, vamos a verla.

Avatar de Usuario
Palahniuk
What a day, what a lovely day!

Mensajes: 3887
Registrado: Vie 09 Jun, 2006 23:07
Ubicación: Vuelo 2039

Re: Tierra (Julio Medem, 1996) BDRip 720p

Mensajepor Palahniuk » Mié 15 Ago, 2018 12:48

Uno que se la lleva
Imagen


Volver a “Cine Contemporáneo”

¿Quién está conectado?

Usuarios navegando por este Foro: No hay usuarios registrados visitando el Foro y 1 invitado