I Walk Alone (Byron Haskin, 1948) HD 1080p VOSE

Publica y encuentra enlaces p2p de filmes hasta 1980 en esta sección.
Responder
Avatar de Usuario
roisiano
Polemista nato
Mensajes: 5547
Registrado: Dom 17 Jul, 2005 02:00
Ubicación: Al final del río

I Walk Alone (Byron Haskin, 1948) HD 1080p VOSE

Mensaje por roisiano » Mar 07 Ago, 2018 13:49

Al volver a la vida (I Walk Alone) (Byron Haskin, 1948)

Imagen
Imagen
Imagen
Imagen
Imagen
Filmaffinity | IMDb

Guion: Charles Schnee (Obra: Theodore Reeves)
Música: Victor Young
Fotografía: Leo Tover (B&W)
Reparto: Burt Lancaster, Lizabeth Scott, Kirk Douglas, Wendell Corey, Kristine Miller, George Rigaud, Marc Lawrence, Mike Mazurki, Mickey Knox, Roger Neury
Productora: Paramount Pictures
Género: Cine negro | Drama | Crimen

Sinopsis:
Tras pasar catorce años en prisión, Frankie sale en libertad y se reencuentra con su hermano Dave. Frank se propone ir al club de su antiguo socio Noll para reclamar la mitad del negocio, según habían acordado verbalmente catorce años atrás. (FILMAFFINITY)



Gracias a quienes compartieron el BD.
Spoiler: mostrar
Dadas las (extrañas) circunstancias en las que actualmente parecemos movernos en el mundo p2p (en especial, en lo relativo a los trackers privados), de aquí en adelante haré "agradecimientos genéricos" a quienes compartieron la fuente original y no enlazaré a dicha fuente original en mis posts.
Disculpen las molestias
Detalles de la edición


Ripeo con esta configuración:

Código: Seleccionar todo

"C:\x264.exe" --preset veryslow --tune film --crf 18.2 --no-chroma-me --level 4.1 --output "C:\mi_ripeo.mkv" "C:\mi_script.avs"
Imagen
Imagen
Imagen
Imagen
Imagen
Imagen
Imagen
Imagen
Imagen
Imagen

Código: Seleccionar todo

 
Format : Matroska 
Format version : Version 4 / Version 2 
File size : 7.28 GiB 
Duration : 1 h 37 min 
Overall bit rate : 10.7 Mb/s 
Writing application : mkvmerge v25.0.0 ('Prog Noir') 64-bit 
Writing library : libebml v1.3.6 + libmatroska v1.4.9 

Video 
ID : 1 
Format : AVC 
Format/Info : Advanced Video Codec 
Format profile : High@L4.1 
Format settings : CABAC / 5 Ref Frames 
Format settings, CABAC : Yes 
Format settings, RefFrames : 5 frames 
Codec ID : V_MPEG4/ISO/AVC 
Duration : 1 h 37 min 
Bit rate : 10.6 Mb/s 
Width : 1 480 pixels 
Height : 1 080 pixels 
Display aspect ratio : 1.370 
Frame rate mode : Constant 
Frame rate : 23.976 (24000/1001) FPS 
Color space : YUV 
Chroma subsampling : 4:2:0 
Bit depth : 8 bits 
Scan type : Progressive 
Bits/(Pixel*Frame) : 0.277 
Stream size : 7.19 GiB (99%) 
Writing library : x264 core 155 r2901 7d0ff22 
Encoding settings : cabac=1 / ref=5 / deblock=1:-1:-1 / analyse=0x3:0x133 / me=umh / subme=10 / psy=1 / psy_rd=1.00:0.15 / mixed_ref=1 / me_range=24 / chroma_me=0 / trellis=2 / 8x8dct=1 / cqm=0 / deadzone=21,11 / fast_pskip=1 / chroma_qp_offset=-3 / threads=6 / lookahead_threads=1 / sliced_threads=0 / nr=0 / decimate=1 / interlaced=0 / bluray_compat=0 / constrained_intra=0 / bframes=8 / b_pyramid=2 / b_adapt=2 / b_bias=0 / direct=3 / weightb=1 / open_gop=0 / weightp=2 / keyint=250 / keyint_min=23 / scenecut=40 / intra_refresh=0 / rc_lookahead=60 / rc=crf / mbtree=1 / crf=18.2 / qcomp=0.60 / qpmin=0 / qpmax=69 / qpstep=4 / ip_ratio=1.40 / aq=1:1.00 
Language : English 
Default : Yes 
Forced : No 

Audio 
ID : 2 
Format : AAC 
Format/Info : Advanced Audio Codec 
Format profile : LC 
Codec ID : A_AAC-2 
Duration : 1 h 37 min 
Bit rate : 122 kb/s 
Channel(s) : 2 channels 
Channel positions : Front: L R 
Sampling rate : 48.0 kHz 
Frame rate : 46.875 FPS (1024 SPF) 
Compression mode : Lossy 
Stream size : 85.0 MiB (1%) 
Writing library : qaac 2.67, CoreAudioToolbox 7.10.9.0
Encoding settings : qaac -V 127 --ignorelength --adts
VBR min./avg./max. : 4 / 125 / 294 Kb/s. 
Duration.......... : 5821.056 sec., (1h. 37m. 1.056s.)
Language : English 
Default : Yes 
Forced : No 

Text #1 
ID : 3 
Format : UTF-8 
Codec ID : S_TEXT/UTF8 
Codec ID/Info : UTF-8 Plain Text 
Duration : 1 h 36 min 
Bit rate : 73 b/s 
Count of elements : 1476 
Stream size : 52.0 KiB (0%) 
Language : Spanish 
Default : Yes 
Forced : No 

Text #2 
ID : 4 
Format : UTF-8 
Codec ID : S_TEXT/UTF8 
Codec ID/Info : UTF-8 Plain Text 
Duration : 1 h 35 min 
Bit rate : 71 b/s 
Count of elements : 1421 
Stream size : 50.2 KiB (0%) 
Language : English 
Default : No 
Forced : No 

Text #3 
ID : 5 
Format : UTF-8 
Codec ID : S_TEXT/UTF8 
Codec ID/Info : UTF-8 Plain Text 
Duration : 1 h 35 min 
Bit rate : 72 b/s 
Count of elements : 1437 
Stream size : 50.5 KiB (0%) 
Title : English SDH 
Language : English 
Default : No 
Forced : No 

Text #4 
ID : 6 
Format : VobSub 
Muxing mode : zlib 
Codec ID : S_VOBSUB 
Codec ID/Info : Picture based subtitle format used on DVDs 
Duration : 1 h 34 min 
Bit rate : 8 310 b/s 
Count of elements : 1418 
Stream size : 5.64 MiB (0%) 
Title : English Vobsubs 
Language : English 
Default : No 
Forced : No 

Menu 
00:00:00.000 : en:00:00:00.000 
00:09:12.312 : en:00:09:12.312 
00:23:09.106 : en:00:23:09.106 
00:36:19.479 : en:00:36:19.479 
00:51:48.615 : en:00:51:48.615 
01:03:14.300 : en:01:03:14.300 
01:15:03.050 : en:01:15:03.050 
01:27:10.735 : en:01:27:10.735




:arrow: BDRip V.O. 1080p, con subtítulos en español e inglés en el contenedor MKV (7.28 GBs)

:arrow: Subtítulos por separado
, por si alguien los necesita para... (116 KBs)


Los subtítulos en español son los de arqlexdelcine - hammett (muchas gracias). Fueron ligeramente corregidos y resincronizados para este ripeo.





:arrow: Cómo buscar archivos en emule. Necesario para buscar lo anterior...





----------------------------------------------------


Imagen Imagen

Última versión del codec x264 (inglés) | Web en español sobre el codec x264
Manual de ripeo con x264 en línea de comandos (español) | Parámetros de codificación (inglés)
Contenedor Matroska (español) | Matroska en wikipedia (español): software de PC compatible, etc.
MKVToolnix, herramientas de edición para matroska (inglés) | Añadir cadenas de audio o subtítulos con MKVToolnix (español)
MKVExtractGui | Manual de extracción de cadenas de audio/vídeo/subtítulos en MKV (español)
Cómo crear BDRips MKV/x264 1080p o 1080p (español) | Guía avanzada para crear DVDRips MKV/x264 paso a paso (inglés)



---------------------------------------

I Walk Alone (Byron Haskin, 1948) SATRip VOSE
Florentino, fíchame.
Por 6.000 € netos mensuales te convierto en el mejor presidente de la historia.

jmog
Mensajes: 974
Registrado: Mié 06 Mar, 2013 23:22

Re: I Walk Alone (Byron Haskin, 1948) HD 1080p VOSE

Mensaje por jmog » Mar 07 Ago, 2018 14:51

Gracias Roi :plas: :plas: :plas:

Avatar de Usuario
Spanish Jhonny
Mensajes: 2463
Registrado: Mar 18 Sep, 2012 16:01

Re: I Walk Alone (Byron Haskin, 1948) HD 1080p VOSE

Mensaje por Spanish Jhonny » Mar 07 Ago, 2018 16:56

Me apunto
Muchas gracias ;)

Avatar de Usuario
janca
Mensajes: 2041
Registrado: Dom 20 Dic, 2009 09:31

Re: I Walk Alone (Byron Haskin, 1948) HD 1080p VOSE

Mensaje por janca » Mar 07 Ago, 2018 18:17

Muchas gracias

cavan20039
Mensajes: 3
Registrado: Sab 25 Sep, 2010 16:37

Re: I Walk Alone (Byron Haskin, 1948) HD 1080p VOSE

Mensaje por cavan20039 » Mar 07 Ago, 2018 19:05

como la descargo? gracias

Avatar de Usuario
elmajete
Mensajes: 908
Registrado: Vie 18 May, 2007 22:05

Re: I Walk Alone (Byron Haskin, 1948) HD 1080p VOSE

Mensaje por elmajete » Mar 07 Ago, 2018 19:21

Muchas gracias Roisiano por la aportación :plas: :plas: :plas:

Avatar de Usuario
Lucio49
Mensajes: 87
Registrado: Mié 04 Feb, 2015 16:59
Ubicación: Brazil

Re: I Walk Alone (Byron Haskin, 1948) HD 1080p VOSE

Mensaje por Lucio49 » Mar 07 Ago, 2018 20:42

Muchas gracias.

Avatar de Usuario
WalterBurns
Mensajes: 988
Registrado: Dom 11 Oct, 2015 15:08

Re: I Walk Alone (Byron Haskin, 1948) HD 1080p VOSE

Mensaje por WalterBurns » Mar 07 Ago, 2018 21:20

Gracias por compartirla.

Avatar de Usuario
Forrest Gump
Mensajes: 1414
Registrado: Vie 18 May, 2007 18:06
Ubicación: Zihuatanejo

Re: I Walk Alone (Byron Haskin, 1948) HD 1080p VOSE

Mensaje por Forrest Gump » Mar 07 Ago, 2018 22:46

Muchísimas gracias, roi. :plas:
Made it, Ma, top of the world!

ostrata
Mensajes: 1682
Registrado: Mié 24 Mar, 2010 17:29

Re: I Walk Alone (Byron Haskin, 1948) HD 1080p VOSE

Mensaje por ostrata » Mar 07 Ago, 2018 23:03

Garcias. :)

Saludos.

maimes
Mensajes: 213
Registrado: Mié 20 Abr, 2011 13:03

Re: I Walk Alone (Byron Haskin, 1948) HD 1080p VOSE

Mensaje por maimes » Mié 08 Ago, 2018 09:58

Muchas gracias. Otra de aquellas películas que no ocupan lugar especialmente destacado dentro del género, pero que por mimbres merece ser revisada de vez en cuando. Gracias y saludos.

Avatar de Usuario
paizoco
Mensajes: 2525
Registrado: Vie 21 Nov, 2003 01:00
Ubicación: Far West

Re: I Walk Alone (Byron Haskin, 1948) HD 1080p VOSE

Mensaje por paizoco » Mié 08 Ago, 2018 13:51

Me apunto, y como siempre, gracias una vez más.

jamescagney
Mensajes: 131
Registrado: Dom 02 Dic, 2012 15:59

Re: I Walk Alone (Byron Haskin, 1948) HD 1080p VOSE

Mensaje por jamescagney » Mié 08 Ago, 2018 17:11

Muchas gracias roisiano .

Avatar de Usuario
Dardo
Arrow Thrower Clown
Mensajes: 16147
Registrado: Dom 19 Oct, 2003 02:00
Ubicación: Entre Encinas y Dolomías

Re: I Walk Alone (Byron Haskin, 1948) HD 1080p VOSE

Mensaje por Dardo » Sab 11 Ago, 2018 11:11

Recién llegado de tierras extrañas y veo que Roisiano ya me tiene ahí en portada :mrgreen:

Nada pinchada queda, la mula está con ganas tras la inactividad.

Saludín para todos, en unos días estaré al día de estos dos meses fuera :sonrisa:

Avatar de Usuario
Jacob
Exprópiese
Mensajes: 9250
Registrado: Jue 01 Jul, 2004 02:00
Ubicación: Where no one has gone before!

Re: I Walk Alone (Byron Haskin, 1948) HD 1080p VOSE

Mensaje por Jacob » Sab 11 Ago, 2018 14:09

:winkgrin:

Perelló
Mensajes: 64
Registrado: Vie 10 Oct, 2008 23:44

Re: I Walk Alone (Byron Haskin, 1948) HD 1080p VOSE

Mensaje por Perelló » Mié 15 Ago, 2018 22:02

Gracias roisiano, de las primeras de Burt cuando todas sus pelis eran de cine negro. Un saludo.

Responder