Truhanes (Miguel Hermoso, 1983) BDRip

Foro orientado a películas de calidad posteriores a 1980. Publica sólo BDRips, DVDRips o TVRips (no Screeners, CAMs, etc.).
DCINE

Mensajes: 314
Registrado: Mar 20 Dic, 2016 15:02

Truhanes (Miguel Hermoso, 1983) BDRip

Mensajepor DCINE » Lun 06 Ago, 2018 08:21

Truhanes
1983

Imagen



DIRECTOR: Miguel Hermoso
PRODUCTORA: PE Films
GUIÓN: Miguel Hermoso
MÚSICA: José Nieto
FOTOGRAFÍA: Fernando Arribas




ARGUMENTO Cuando la mala suerte y un asunto de poca monta llevan a la cárcel a Gonzalo Millares, la sensación de vértigo y malestar es tan grande que pone su seguridad en manos de Ginés Giménez, un timador mujeriego y borrachín que, a cambio de un futuro mejor fuera de la cárcel, se presta a echarle una mano mientras dure su cautiverio. Ése es el trato. (FILMAFFINITY) IMDB: https://www.imdb.com/title/tt0086482/



Reparto: Francisco Rabal, Arturo Fernández, Isabel Mestres, Vicky Lagos, Lola Flores, Rafael Díaz, Antonio Gamero


Datos Técnicos:


Código: Seleccionar todo

General:

Complete name                    : 1983 Truhanes (Miguel Hermoso, 1983) BDRip 576p VO by DCINE.mkv
Format                           : Matroska
Format version                   : Version 4 / Version 2
File size                        : 1.98 GiB
Duration                         : 1h 43mn
Overall bit rate                 : 2 746 Kbps
Encoded date                     : UTC 2017-09-05T05:27:51Z
Writing application              : mkvmerge v7.1.0 ('Good Love') 32bit built on Jul 27 2014 12:59:18
Writing library                  : Lavf55.12.0

Video
ID                               : 1
Format                           : AVC
Format/Info                      : Advanced Video Codec
Format profile                   : High@L4.1
Format settings, CABAC           : Yes
Format settings, ReFrames        : 5 frames
Codec ID                         : V_MPEG4/ISO/AVC
Duration                         : 1h 43mn
Bit rate                         : 2 499 Kbps
Width                            : 956 pixels
Height                           : 574 pixels
Display aspect ratio             : 1.666
Frame rate mode                  : Variable
Frame rate                       : 24.000 fps
Color space                      : YUV
Chroma subsampling               : 4:2:0
Bit depth                        : 8 bits
Scan type                        : Progressive
Bits/(Pixel*Frame)               : 0.190
Stream size                      : 1.81 GiB (91%)
Writing library                  : x264 core 142 r2479 dd79a61
Encoding settings                : cabac=1 / ref=5 / deblock=1:0:0 / analyse=0x3:0x113 / me=umh / subme=8 / psy=1 / psy_rd=1.00:0.00 / mixed_ref=1 / me_range=16 / chroma_me=1 / trellis=1 / 8x8dct=1 / cqm=0 / deadzone=21,11 / fast_pskip=1 / chroma_qp_offset=-2 / threads=1 / lookahead_threads=1 / sliced_threads=0 / nr=0 / decimate=1 / interlaced=0 / bluray_compat=0 / constrained_intra=0 / bframes=3 / b_pyramid=2 / b_adapt=2 / b_bias=0 / direct=3 / weightb=1 / open_gop=0 / weightp=2 / keyint=240 / keyint_min=24 / scenecut=40 / intra_refresh=0 / rc_lookahead=50 / rc=crf / mbtree=1 / crf=20.0 / qcomp=0.60 / qpmin=0 / qpmax=69 / qpstep=4 / vbv_maxrate=62500 / vbv_bufsize=78125 / crf_max=0.0 / nal_hrd=none / filler=0 / ip_ratio=1.40 / aq=1:1.00
Default                          : Yes
Forced                           : No
_STATISTICS_WRITING_APP          : mkvmerge v7.1.0 ('Good Love') 32bit built on Jul 27 2014 12:59:18
_STATISTICS_WRITING_DATE_UTC     : 2017-09-05 21:04:44
_STATISTICS_TAGS                 : BPS DURATION NUMBER_OF_FRAMES NUMBER_OF_BYTES
DURATION                         : 01:40:41.875000000
NUMBER_OF_FRAMES                 : 145005
NUMBER_OF_BYTES                  : 1981365809
Color primaries                  : BT.709-5, BT.1361, IEC 61966-2-4, SMPTE RP177
Transfer characteristics         : BT.709-5, BT.1361
Matrix coefficients              : BT.709-5, BT.1361, IEC 61966-2-4 709, SMPTE RP177

Audio
ID                               : 2
Format                           : AC-3
Format/Info                      : Audio Coding 3
Mode extension                   : CM (complete main)
Codec ID                         : A_AC3
Duration                         : 1h 43mn
Bit rate mode                    : Constant
Bit rate                         : 192 Kbps
Channel(s)                       : 2 channels
Channel positions                : Front: L R
Sampling rate                    : 48.0 KHz
Bit depth                        : 16 bits
Compression mode                 : Lossy
Delay relative to video          : 84ms
Stream size                      : 142 MiB (7%)
Language                         : Spanish
Default                          : No
Forced                           : No
_STATISTICS_WRITING_APP          : mkvmerge v7.1.0 ('Good Love') 32bit built on Jul 27 2014 12:59:18
_STATISTICS_WRITING_DATE_UTC     : 2017-09-05 21:04:44
_STATISTICS_TAGS                 : BPS DURATION NUMBER_OF_FRAMES NUMBER_OF_BYTES
DURATION                         : 01:43:27.170000000
NUMBER_OF_FRAMES                 : 193906
NUMBER_OF_BYTES                  : 147599104

Menu #1
00:00:00.000                     : :Chapter 1
00:09:11.125                     : :Chapter 2
00:20:10.125                     : :Chapter 3
00:25:28.333                     : :Chapter 4
00:32:02.541                     : :Chapter 5
00:39:04.791                     : :Chapter 6
00:49:30.208                     : :Chapter 7
00:56:21.583                     : :Chapter 8
01:04:30.833                     : :Chapter 9
01:12:19.416                     : :Chapter 10
01:21:07.416                     : :Chapter 11
01:29:12.875                     : :Chapter 12
01:39:32.333                     : :Chapter 13
01:40:39.916                     : :Chapter 14

Menu #2
00:00:00.000                     : en:Chapter 01
00:09:11.041                     : en:Chapter 02
00:20:10.041                     : en:Chapter 03
00:25:28.250                     : en:Chapter 04
00:32:02.333                     : en:Chapter 05
00:39:04.583                     : en:Chapter 06
00:49:30.125                     : en:Chapter 07
00:56:21.500                     : en:Chapter 08
01:04:30.708                     : en:Chapter 09
01:12:19.208                     : en:Chapter 10
01:21:07.208                     : en:Chapter 11
01:29:12.791                     : en:Chapter 12
01:39:32.250                     : en:Chapter 13
01:40:39.708                     : en:Chapter 14







Capturas:

Imagen Imagen
Imagen Imagen
Imagen Imagen
Imagen Imagen
Imagen Imagen





Enlace:


1983 Truhanes (Miguel Hermoso, 1983) BDRip 576p VO by DCINE.mkv [1.98 Gb] [Info]


DD: https://mega.nz/#!bigBHI6C!GtXfo4r-UND5 ... YX1udyZe9U


Otras copias en la web

DVDRip: viewtopic.php?f=1015&t=37912&hilit=truhanes

Avatar de Usuario
duegno

Mensajes: 236
Registrado: Dom 28 Ago, 2011 13:28

Re: Truhanes (Miguel Hermoso, 1983) BDRip

Mensajepor duegno » Lun 06 Ago, 2018 15:52

Gracias, la recuerdo. Posteriormente hicieron una serie.

Avatar de Usuario
SolPolito
Ubi sunt? Picha

Mensajes: 3524
Registrado: Lun 03 Feb, 2003 01:00
Contactar:

Re: Truhanes (Miguel Hermoso, 1983) BDRip

Mensajepor SolPolito » Mar 07 Ago, 2018 11:20

Vamos Con Truhanes!
Moltes Graciés.
Arriba Evo, no te dejes
Arriba los pobres de Bolivia

Avatar de Usuario
SolPolito
Ubi sunt? Picha

Mensajes: 3524
Registrado: Lun 03 Feb, 2003 01:00
Contactar:

Re: Truhanes (Miguel Hermoso, 1983) BDRip

Mensajepor SolPolito » Mar 07 Ago, 2018 11:49

Ejem!!! Mare mia! Y eso que tengo el burro mas capado que un Eunuco!
Arriba Evo, no te dejes
Arriba los pobres de Bolivia


Volver a “Cine Contemporáneo”

¿Quién está conectado?

Usuarios navegando por este Foro: No hay usuarios registrados visitando el Foro y 1 invitado