De mujer a mujer (Luis Lucia, 1950) SATRip

Publica y encuentra enlaces p2p de filmes hasta 1980 en esta sección.
DCINE

Mensajes: 335
Registrado: Mar 20 Dic, 2016 15:02

De mujer a mujer (Luis Lucia, 1950) SATRip

Mensajepor DCINE » Vie 13 Jul, 2018 07:51

De mujer a mujer
1950

Imagen



DIRECTOR: Luis Lucia
PRODUCTORA: Cifesa
GUIÓN: Antonio Abad Ojuel, Ricardo Blasco, Luis Lucia (Libro: Jacinto Benavente)
MÚSICA: Juan Quintero
FOTOGRAFÍA: Alfredo Fraile

ImagenImagen

Imagen

ARGUMENTO Como cada año, el feliz matrimonio formado por Luis e Isabel se dispone a celebrar el santo de ella y el de su hija, sin sospechar que el destino les reserva un trágico giro en sus vidas, pues en un fatídico accidente la niña pierde la vida. El dolor hace enloquecer a Isabel hasta el punto de ser recluida en un sanatorio sin que Luis pueda verla. Las únicas noticias que tiene sobre ella se las da Emilia, la joven enfermera que la cuida. (FILMAFFINITY) IMDB: https://www.imdb.com/title/tt0042385/

ImagenImagen
ImagenImagen
ImagenImagen
Imagen


Imagen


Reparto: Amparo Rivelles, Ana Mariscal, Eduardo Fajardo, Manuel Luna, Manolo Fábregas, Jesús Tordesillas, Fernando Fernández de Córdoba, Mariano Asquerino, Irene Caba Alba


Datos Técnicos:

Fuente original gracia a mifune

Código: Seleccionar todo

General:

Complete name                    : 1950 De mujer a mujer (Luis Lucia, 1950) SATRip VO by mifune-DCINE.mkv
Format                           : Matroska
Format version                   : Version 4 / Version 2
File size                        : 885 MiB
Duration                         : 1h 20mn
Overall bit rate                 : 1 532 Kbps
Encoded date                     : UTC 2017-09-17T21:30:45Z
Writing application              : mkvmerge v7.1.0 ('Good Love') 32bit built on Jul 27 2014 12:59:18
Writing library                  : Lavf54.63.104

Video
ID                               : 1
Format                           : AVC
Format/Info                      : Advanced Video Codec
Format profile                   : High@L4.1
Format settings, CABAC           : Yes
Format settings, ReFrames        : 4 frames
Codec ID                         : V_MPEG4/ISO/AVC
Duration                         : 1h 20mn
Bit rate                         : 1 309 Kbps
Width                            : 720 pixels
Height                           : 576 pixels
Display aspect ratio             : 4:3
Frame rate mode                  : Variable
Frame rate                       : 25.000 fps
Standard                         : PAL
Color space                      : YUV
Chroma subsampling               : 4:2:0
Bit depth                        : 8 bits
Scan type                        : Progressive
Bits/(Pixel*Frame)               : 0.126
Stream size                      : 756 MiB (85%)
Writing library                  : x264 core 142 r2479 dd79a61
Encoding settings                : cabac=1 / ref=3 / deblock=1:0:0 / analyse=0x3:0x113 / me=hex / subme=7 / psy=1 / psy_rd=1.00:0.00 / mixed_ref=1 / me_range=16 / chroma_me=1 / trellis=1 / 8x8dct=1 / cqm=0 / deadzone=21,11 / fast_pskip=1 / chroma_qp_offset=-2 / threads=1 / lookahead_threads=1 / sliced_threads=0 / nr=0 / decimate=1 / interlaced=0 / bluray_compat=0 / constrained_intra=0 / bframes=3 / b_pyramid=2 / b_adapt=1 / b_bias=0 / direct=1 / weightb=1 / open_gop=0 / weightp=2 / keyint=250 / keyint_min=25 / scenecut=40 / intra_refresh=0 / rc_lookahead=40 / rc=crf / mbtree=1 / crf=20.0 / qcomp=0.60 / qpmin=0 / qpmax=69 / qpstep=4 / vbv_maxrate=62500 / vbv_bufsize=78125 / crf_max=0.0 / nal_hrd=none / filler=0 / ip_ratio=1.40 / aq=1:1.00
Default                          : Yes
Forced                           : No
DURATION                         : 01:20:46.520000000
NUMBER_OF_FRAMES                 : 121157
NUMBER_OF_BYTES                  : 810534114
_STATISTICS_WRITING_APP          : mkvmerge v7.1.0 ('Good Love') 32bit built on Jul 27 2014 12:59:18
_STATISTICS_WRITING_DATE_UTC     : 2017-09-18 05:24:57
_STATISTICS_TAGS                 : BPS DURATION NUMBER_OF_FRAMES NUMBER_OF_BYTES
Color primaries                  : BT.470-6 System B, BT.470-6 System G, BT.601-6 625, BT.1358 625, BT.1700 625 PAL, BT.1700 625 SECAM
Transfer characteristics         : BT.709-5, BT.1361
Matrix coefficients              : BT.601-6 525, BT.1358 525, BT.1700 NTSC, SMPTE 170M

Audio
ID                               : 2
Format                           : MPEG Audio
Format version                   : Version 1
Format profile                   : Layer 2
Codec ID                         : A_MPEG/L2
Codec ID/Hint                    : MP2
Duration                         : 1h 20mn
Bit rate mode                    : Constant
Bit rate                         : 192 Kbps
Channel(s)                       : 2 channels
Sampling rate                    : 48.0 KHz
Compression mode                 : Lossy
Delay relative to video          : -38ms
Stream size                      : 111 MiB (13%)
Language                         : Spanish
Default                          : Yes
Forced                           : No
DURATION                         : 01:20:46.616000000
NUMBER_OF_FRAMES                 : 201930
NUMBER_OF_BYTES                  : 116311680
_STATISTICS_WRITING_APP          : mkvmerge v7.1.0 ('Good Love') 32bit built on Jul 27 2014 12:59:18
_STATISTICS_WRITING_DATE_UTC     : 2017-09-18 05:24:57
_STATISTICS_TAGS                 : BPS DURATION NUMBER_OF_FRAMES NUMBER_OF_BYTES





Capturas:

Imagen Imagen
Imagen Imagen
Imagen Imagen
Imagen Imagen
Imagen Imagen




Enlace:

1950 De mujer a mujer (Luis Lucia, 1950) SATRip VO by mifune-DCINE.mkv [884.95 Mb] [Info]

DD: https://mega.nz/#!BwRQGY5Z!THXTuFYohI9x ... -culqE0z7E

Volver a “Cine Clásico”

¿Quién está conectado?

Usuarios navegando por este Foro: Yandex [Bot] y 1 invitado