Hilda Crane (Philip Dunne, 1956) HD 1080p VOSE

Publica y encuentra enlaces p2p de filmes hasta 1980 en esta sección.
Responder
Avatar de Usuario
hammett
Mensajes: 462
Registrado: Vie 10 Oct, 2008 09:04

Hilda Crane (Philip Dunne, 1956) HD 1080p VOSE

Mensaje por hammett » Jue 12 Jul, 2018 17:52

Hilda Crane (Philip Dunne, 1956)

Imagen
Imagen
Imagen

Filmaffinity | IMDb

Guion: Philip Dunne (Obra: Samson Raphaelson)
Música: David Raksin
Fotografía: Joseph MacDonald
Reparto: Jean Simmons, Guy Madison, Jean-Pierre Aumont, Judith Evelyn, Evelyn Varden, Peggy Knudsen, Gregg Palmer, Richard Garrick, Jim Hayward, Sandee Marriott, Don Shelton, Helen Mayon, Marie Blake, Jay Jostyn
Productora: Twentieth Century Fox Film Corporation
Género: Drama

Sinopsis:
Hilda Crane vuelve a Nueva York, con dos divorcios a sus espaldas. Se casa con un pretendiente, un constructor de éxito, con una madre propensa a exagerar sus síntomas. Ésta le ofrece 50.000 dólares por no casarse con su hijo, y cuando rechaza el soborno, la mujer muere de un infarto. Olvidada por su marido, Hilda se da a la bebida y trata de suicidarse con barbitúricos. Salvada in extremis, su marido volverá a ella. (FILMAFFINITY)



Gracias a quienes compartieron el BD.
Spoiler: mostrar
Dadas las (extrañas) circunstancias en las que actualmente parecemos movernos en el mundo p2p (en especial, en lo relativo a los trackers privados), de aquí en adelante haré "agradecimientos genéricos" a quienes compartieron la fuente original y no enlazaré a dicha fuente original en mis posts.
Disculpen las molestias

Detalles de la edición



Ripeo con esta configuración:

Código: Seleccionar todo

"C:\x264.exe" --preset veryslow --tune film --crf 18.8 --level 4.1 --output "C:\mi_ripeo.mkv" "C:\mi_script.avs"

Imagen
Imagen
Imagen
Imagen
Imagen
Imagen
Imagen
Imagen
Imagen


Código: Seleccionar todo

Format : Matroska 
Format version : Version 4 / Version 2 
File size : 7.29 GiB 
Duration : 1 h 27 min 
Overall bit rate : 11.9 Mb/s 
Writing application : mkvmerge v24.0.0 ('Beyond The Pale') 64-bit 
Writing library : libebml v1.3.6 + libmatroska v1.4.9 

Video 
ID : 1 
Format : AVC 
Format/Info : Advanced Video Codec 
Format profile : High@L4.1 
Format settings : CABAC / 5 Ref Frames 
Format settings, CABAC : Yes 
Format settings, RefFrames : 5 frames 
Codec ID : V_MPEG4/ISO/AVC 
Duration : 1 h 27 min 
Bit rate : 11.0 Mb/s 
Width : 1 920 pixels 
Height : 752 pixels 
Display aspect ratio : 2.553 
Frame rate mode : Constant 
Frame rate : 23.976 (24000/1001) FPS 
Color space : YUV 
Chroma subsampling : 4:2:0 
Bit depth : 8 bits 
Scan type : Progressive 
Bits/(Pixel*Frame) : 0.319 
Stream size : 6.75 GiB (93%) 
Writing library : x264 core 155 r2901 7d0ff22 
Encoding settings : cabac=1 / ref=5 / deblock=1:-1:-1 / analyse=0x3:0x133 / me=umh / subme=10 / psy=1 / psy_rd=1.00:0.15 / mixed_ref=1 / me_range=24 / chroma_me=1 / trellis=2 / 8x8dct=1 / cqm=0 / deadzone=21,11 / fast_pskip=1 / chroma_qp_offset=-3 / threads=6 / lookahead_threads=1 / sliced_threads=0 / nr=0 / decimate=1 / interlaced=0 / bluray_compat=0 / constrained_intra=0 / bframes=8 / b_pyramid=2 / b_adapt=2 / b_bias=0 / direct=3 / weightb=1 / open_gop=0 / weightp=2 / keyint=250 / keyint_min=23 / scenecut=40 / intra_refresh=0 / rc_lookahead=60 / rc=crf / mbtree=1 / crf=18.8 / qcomp=0.60 / qpmin=0 / qpmax=69 / qpstep=4 / ip_ratio=1.40 / aq=1:1.00 
Language : English 
Default : Yes 
Forced : No 

Audio #1 
ID : 2 
Format : AC-3 
Format/Info : Audio Coding 3 
Codec ID : A_AC3 
Duration : 1 h 27 min 
Bit rate mode : Constant 
Bit rate : 640 kb/s 
Channel(s) : 6 channels 
Channel positions : Front: L C R, Side: L R, LFE 
Sampling rate : 48.0 kHz 
Frame rate : 31.250 FPS (1536 SPF) 
Bit depth : 16 bits 
Compression mode : Lossy 
Stream size : 400 MiB (5%) 
Title : AC3 5.1 Surround 
Language : English 
Service kind : Complete Main 
Default : Yes 
Forced : No 

Audio #2 
ID : 3 
Format : AAC 
Format/Info : Advanced Audio Codec 
Format profile : LC 
Codec ID : A_AAC-2 
Duration : 1 h 27 min 
Bit rate : 232 kb/s 
Channel(s) : 2 channels 
Channel positions : Front: L R 
Sampling rate : 48.0 kHz 
Frame rate : 46.875 FPS (1024 SPF) 
Compression mode : Lossy 
Stream size : 145 MiB (2%) 
Title : AAC 2.0 Stereo 
Writing library : qaac 2.67, CoreAudioToolbox 7.10.9.0
Encoding settings : qaac -V 127 --ignorelength --adts --no-delay -o
VBR min./avg./max. : 4 / 234 / 449 Kb/s. 
Duration.......... : 5247.275 sec., (1h. 27m. 27.275s.)
Language : English 
Default : No 
Forced : No 

Text #1 
ID : 4 
Format : UTF-8 
Codec ID : S_TEXT/UTF8 
Codec ID/Info : UTF-8 Plain Text 
Duration : 1 h 24 min 
Bit rate : 93 b/s 
Count of elements : 1465 
Stream size : 58.1 KiB (0%) 
Language : Spanish 
Default : Yes 
Forced : No 

Text #2 
ID : 5 
Format : UTF-8 
Codec ID : S_TEXT/UTF8 
Codec ID/Info : UTF-8 Plain Text 
Duration : 1 h 24 min 
Bit rate : 90 b/s 
Count of elements : 1465 
Stream size : 56.2 KiB (0%) 
Language : English 
Default : No 
Forced : No 

Text #3 
ID : 6 
Format : UTF-8 
Codec ID : S_TEXT/UTF8 
Codec ID/Info : UTF-8 Plain Text 
Duration : 1 h 25 min 
Bit rate : 92 b/s 
Count of elements : 1518 
Stream size : 57.8 KiB (0%) 
Title : English (SDH) 
Language : English 
Default : No 
Forced : No 

Text #4 
ID : 7 
Format : VobSub 
Muxing mode : zlib 
Codec ID : S_VOBSUB 
Codec ID/Info : Picture based subtitle format used on DVDs 
Duration : 1 h 25 min 
Bit rate : 19.9 kb/s 
Count of elements : 1517 
Stream size : 12.2 MiB (0%) 
Title : English Vobsubs (SDH) 
Language : English 
Default : No 
Forced : No 

Menu 
00:00:00.000 : en:00:00:00.000 
00:02:57.010 : en:00:02:57.010 
00:07:41.503 : en:00:07:41.503 
00:10:17.617 : en:00:10:17.617 
00:14:12.894 : en:00:14:12.894 
00:19:09.482 : en:00:19:09.482 
00:22:59.378 : en:00:22:59.378 
00:26:20.579 : en:00:26:20.579 
00:27:35.112 : en:00:27:35.112 
00:31:25.509 : en:00:31:25.509 
00:37:53.271 : en:00:37:53.271 
00:42:47.690 : en:00:42:47.690 
00:44:44.724 : en:00:44:44.724 
00:48:37.164 : en:00:48:37.164 
00:52:46.747 : en:00:52:46.747 
00:54:48.535 : en:00:54:48.535 
00:58:09.569 : en:00:58:09.569 
01:01:55.170 : en:01:01:55.170 
01:05:30.927 : en:01:05:30.927 
01:10:29.684 : en:01:10:29.684 
01:14:14.367 : en:01:14:14.367 
01:18:09.602 : en:01:18:09.602 
01:20:04.133 : en:01:20:04.133 
01:24:00.869 : en:01:24:00.869




:arrow: BDRip V.O., con subtítulos en español de Hammett y Tennison e ingleses en el contenedor MKV (7.29 GBs)

Hilda.Crane.1956.BDRip.x264.1080p.AC3.5.1.AAC.2.0.mkv (BDRip V.O. - dos cadenas de audio; 5.1 y 2.0)

:arrow: Subtítulos por separado
, por si alguien los necesita para... (125 KBs)

Hilda.Crane.1956.BDRip.x264.1080p.AC3.5.1.AAC.2.0.zip (pack de subtítulos .srt, incluyendo los Spanish)

Se ofrecen dos audios V.O. con el BDRip: un AC3 5.1 y un AAC 2.0, ripeados de las dos cadenas de audio V.O. del BD. No tengo claro cuál es "puramente" el que mejor se corresponde al audio original de la película, así que se ofrecen ambos tracks para que podáis elegir.





:arrow: Cómo buscar archivos en emule. Necesario para buscar lo anterior...





----------------------------------------------------


Imagen Imagen

Última versión del codec x264 (inglés) | Web en español sobre el codec x264
Manual de ripeo con x264 en línea de comandos (español) | Parámetros de codificación (inglés)
Contenedor Matroska (español) | Matroska en wikipedia (español): software de PC compatible, etc.
MKVToolnix, herramientas de edición para matroska (inglés) | Añadir cadenas de audio o subtítulos con MKVToolnix (español)
MKVExtractGui | Manual de extracción de cadenas de audio/vídeo/subtítulos en MKV (español)
Cómo crear BDRips MKV/x264 1080p o 1080p (español) | Guía avanzada para crear DVDRips MKV/x264 paso a paso (inglés)
"La vida es en color, pero el blanco y negro es más realista"

Avatar de Usuario
WalterBurns
Mensajes: 994
Registrado: Dom 11 Oct, 2015 15:08

Re: Hilda Crane (Philip Dunne, 1956) HD 1080p VOSE

Mensaje por WalterBurns » Jue 12 Jul, 2018 19:00

Gracias por compartirla.

Avatar de Usuario
paizoco
Mensajes: 2525
Registrado: Vie 21 Nov, 2003 01:00
Ubicación: Far West

Re: Hilda Crane (Philip Dunne, 1956) HD 1080p VOSE

Mensaje por paizoco » Jue 12 Jul, 2018 19:03

Descargando ya, muchas gracias como siempre a todos los implicados en el trabajo.

ostrata
Mensajes: 1684
Registrado: Mié 24 Mar, 2010 17:29

Re: Hilda Crane (Philip Dunne, 1956) HD 1080p VOSE

Mensaje por ostrata » Jue 12 Jul, 2018 22:17

Gracias. :)

Saludos.

Avatar de Usuario
miguelito
Mensajes: 203
Registrado: Sab 13 Abr, 2013 15:33

Re: Hilda Crane (Philip Dunne, 1956) HD 1080p VOSE

Mensaje por miguelito » Dom 15 Jul, 2018 10:54

Mil gracias, la verdad es que es una película impresionante, una grata sorpresa. Se disfrura cada plano por las brillantes composiciones en Cinemascope, el agradable uso de los colores, con esos tonos pastel de las casas americanas de los años 50, muy en la línea de otras producciones Fox de la época como Woman's World de Negulesco o Bigger than Life de Ray, no en vano es el mismo director de fotografía (pero con la sensación de que si hubiera sido Leon Shamroy o Leo Tover no hubiera sido muy distinto, tal era la perfección en el funcionamiento de la Fox en esos años).

Ya por pedir, estaría genial un ripeazo de la otra peli de Dunne editada por Twilight Time en bluray, Blue Denim, que tiene tan buena pinta como esta. Aunque la que realmente me apetece, ya desde hace tiempo, es Prince of Players.

Avatar de Usuario
duegno
Mensajes: 264
Registrado: Dom 28 Ago, 2011 13:28

Re: Hilda Crane (Philip Dunne, 1956) HD 1080p VOSE

Mensaje por duegno » Dom 15 Jul, 2018 13:06

Gracias, ¿alguien sabe de dónde conseguir el audio español? Podría intentar adaptárselo. Existir, existe, porque se emitió en A3TV en los 90 y está disponible on-line

https://elpais.com/diario/1994/02/06/ra ... 50215.html

http://tvonline.movistar.cl/programming ... INE/248650

Responder