Caravana de esclavos (Georg Marischka, Ramón Torrado, 1958) SATRip VE

Publica y encuentra enlaces p2p de filmes hasta 1980 en esta sección.
DCINE

Mensajes: 335
Registrado: Mar 20 Dic, 2016 15:02

Caravana de esclavos (Georg Marischka, Ramón Torrado, 1958) SATRip VE

Mensajepor DCINE » Jue 12 Jul, 2018 08:42

Caravana de esclavos
(Die Sklavenkarawane)

1958

Imagen



DIRECTOR: Georg Marischka, Ramón Torrado
PRODUCTORA: Coproducción Alemania del Oeste-España; Dokumentar und Colorfilm H. Neubert K.G. / Jesús Sáiz P.C.
GUIÓN: Georg Marischka, Ramón Torrado (Novelas: Karl May)
MÚSICA: Emilio Lehmberg, Ulrich Sommerlatte
FOTOGRAFÍA: Alfredo Fraile



ARGUMENTO Kara Ben Nemsi se reúne en el desierto con sus compañeros Albert y Lindsay quienes, poco después, son hechos prisioneros por los traficantes de esclavos que piensan pedir un fuerte rescate por ellos. (FILMAFFINITY) IMDB: https://www.imdb.com/title/tt0051448/

ImagenImagen
ImagenImagen
ImagenImagen

Reparto: Viktor Staal, Georg Thomalla, Theo Lingen, Fernando Sancho, Mara Cruz, José Guardiola, Rafael Luis Calvo, Julio Núñez, Antonio Casas, Ángel Álvarez

Doblaje Cines 1959: http://www.eldoblaje.com/datos/FichaPelicula.asp?id=721

Datos Técnicos:

Versión española. Coproducción rodada en doble versión

Código: Seleccionar todo

General:

Complete name                    : 1958 Caravana de esclavos (Die Sklavenkarawane) (G. Marischka, R. Torrado, 1958) SATRip VE (Doblaje Cines 1959) RTVE by DCINE.mkv
Format                           : Matroska
Format version                   : Version 4 / Version 2
File size                        : 1.90 GiB
Duration                         : 1h 40mn
Overall bit rate                 : 2 719 Kbps
Movie name                       : 1958 Caravana de esclavos/Die Sklavenkarawane (Georg Marischka, Ramón Torrado, 1958) SATRip VE (Doblaje Cines 1959) RTVE by DCINE.mkv
Encoded date                     : UTC 2017-09-17T13:13:43Z
Writing application              : mkvmerge v7.1.0 ('Good Love') 32bit built on Jul 27 2014 12:59:18
Writing library                  : Lavf54.63.104

Video
ID                               : 1
Format                           : AVC
Format/Info                      : Advanced Video Codec
Format profile                   : High@L4.1
Format settings, CABAC           : Yes
Format settings, ReFrames        : 4 frames
Codec ID                         : V_MPEG4/ISO/AVC
Duration                         : 1h 40mn
Bit rate                         : 2 473 Kbps
Width                            : 536 pixels
Height                           : 572 pixels
Display aspect ratio             : 4:3
Frame rate mode                  : Variable
Frame rate                       : 25.000 fps
Color space                      : YUV
Chroma subsampling               : 4:2:0
Bit depth                        : 8 bits
Scan type                        : Progressive
Bits/(Pixel*Frame)               : 0.323
Stream size                      : 1.73 GiB (91%)
Writing library                  : x264 core 142 r2479 dd79a61
Encoding settings                : cabac=1 / ref=3 / deblock=1:0:0 / analyse=0x3:0x113 / me=hex / subme=7 / psy=1 / psy_rd=1.00:0.00 / mixed_ref=1 / me_range=16 / chroma_me=1 / trellis=1 / 8x8dct=1 / cqm=0 / deadzone=21,11 / fast_pskip=1 / chroma_qp_offset=-2 / threads=1 / lookahead_threads=1 / sliced_threads=0 / nr=0 / decimate=1 / interlaced=0 / bluray_compat=0 / constrained_intra=0 / bframes=3 / b_pyramid=2 / b_adapt=1 / b_bias=0 / direct=1 / weightb=1 / open_gop=0 / weightp=2 / keyint=250 / keyint_min=25 / scenecut=40 / intra_refresh=0 / rc_lookahead=40 / rc=crf / mbtree=1 / crf=19.0 / qcomp=0.60 / qpmin=0 / qpmax=69 / qpstep=4 / vbv_maxrate=62500 / vbv_bufsize=78125 / crf_max=0.0 / nal_hrd=none / filler=0 / ip_ratio=1.40 / aq=1:1.00
Default                          : Yes
Forced                           : No
_STATISTICS_WRITING_APP          : mkvmerge v7.1.0 ('Good Love') 32bit built on Jul 27 2014 12:59:18
_STATISTICS_WRITING_DATE_UTC     : 2018-07-09 20:31:29
_STATISTICS_TAGS                 : BPS DURATION NUMBER_OF_FRAMES NUMBER_OF_BYTES
DURATION                         : 01:40:03.120000000
NUMBER_OF_FRAMES                 : 150078
NUMBER_OF_BYTES                  : 1894648702
Color primaries                  : BT.470-6 System B, BT.470-6 System G, BT.601-6 625, BT.1358 625, BT.1700 625 PAL, BT.1700 625 SECAM
Transfer characteristics         : BT.709-5, BT.1361
Matrix coefficients              : BT.601-6 525, BT.1358 525, BT.1700 NTSC, SMPTE 170M

Audio
ID                               : 2
Format                           : MPEG Audio
Format version                   : Version 1
Format profile                   : Layer 2
Codec ID                         : A_MPEG/L2
Codec ID/Hint                    : MP2
Duration                         : 1h 40mn
Bit rate mode                    : Constant
Bit rate                         : 192 Kbps
Channel(s)                       : 2 channels
Sampling rate                    : 48.0 KHz
Compression mode                 : Lossy
Delay relative to video          : -58ms
Stream size                      : 137 MiB (7%)
Title                            : Doblaje Cines 1959
Language                         : Spanish
Default                          : Yes
Forced                           : No
_STATISTICS_WRITING_APP          : mkvmerge v7.1.0 ('Good Love') 32bit built on Jul 27 2014 12:59:18
_STATISTICS_WRITING_DATE_UTC     : 2018-07-09 20:31:29
_STATISTICS_TAGS                 : BPS DURATION NUMBER_OF_FRAMES NUMBER_OF_BYTES
DURATION                         : 01:40:03.240000000
NUMBER_OF_FRAMES                 : 250135
NUMBER_OF_BYTES                  : 144077760










Capturas:

Imagen Imagen
Imagen Imagen
Imagen Imagen
Imagen Imagen
Imagen Imagen




Enlace:

1958 Caravana de esclavos (Die Sklavenkarawane) (G. Marischka, R. Torrado, 1958) SATRip VE (Doblaje Cines 1959) RTVE by DCINE.mkv [1.90 Gb] [Info]

DD: https://mega.nz/#!4xoxACDJ!e-gPNpIo46kz ... 6LAtTw7KVE

Volver a “Cine Clásico”

¿Quién está conectado?

Usuarios navegando por este Foro: 360so [Bot] y 3 invitados