Aquel hombre de Tánger (Robert Elwyn, Luis María Delgado, 1953) SATRip VE

Publica y encuentra enlaces p2p de filmes hasta 1980 en esta sección.
DCINE

Mensajes: 326
Registrado: Mar 20 Dic, 2016 15:02

Aquel hombre de Tánger (Robert Elwyn, Luis María Delgado, 1953) SATRip VE

Mensajepor DCINE » Mié 11 Jul, 2018 08:49

Aquel hombre de Tánger
(That Man from Tangier)

1953

Imagen



DIRECTOR: Robert Elwyn, Luis María Delgado
PRODUCTORA: Coproducción España-Estados Unidos; Chamartín / Elemsee Overseas Productions
GUIÓN: John Meehan Jr., Tíbor Reves
MÚSICA: Elizabeth Firestone
FOTOGRAFÍA: Don Malkames

ImagenImagen
Imagen

ARGUMENTO Una rica y caprichosa heredera americana se casa en Tánger con un hombre al que acaba de conocer y que dice ser un conde francés. Sin embargo, momentos después de la boda desaparece. Desconcertada, decide iniciar una investigación con la ayuda de su padre. Pero al ver que no lo encuentran y por miedo a un escándalo, contrata a una persona para que se haga pasar por su marido. (FILMAFFINITY) IMDB: https://www.imdb.com/title/tt0042202/

ImagenImagen
ImagenImagen

Reparto: Nancy Coleman, Sara Montiel, Nils Asther, Roland Young, Irene Caba Alba, José Suárez, Juana Mansó, Margaret Wycherly

Doblaje Cines 1953: www.eldoblaje.com/datos/FichaPelicula.asp?id=24750

Datos Técnicos:

Fuente original gracias a mifune

Código: Seleccionar todo

General:

Complete name                    : 1953 Aquel hombre de Tánger (That Man from Tangier) (L. M. Delgado, R. Elwyn, 1953) SATRip VE (Doblaje Cines 1953) by mifune-DCINE.mkv
Format                           : Matroska
Format version                   : Version 4 / Version 2
File size                        : 1.22 GiB
Duration                         : 1h 22mn
Overall bit rate                 : 2 109 Kbps
Movie name                       : 1953 Aquel hombre de Tánger/That Man from Tangier (Luis María Delgado, Robert Elwyn, 1953) SATRip VE (Doblaje Cines 1953) by mifune-DCINE.mkv
Encoded date                     : UTC 2017-09-20T18:19:36Z
Writing application              : mkvmerge v7.1.0 ('Good Love') 32bit built on Jul 27 2014 12:59:18
Writing library                  : Lavf54.63.104

Video
ID                               : 1
Format                           : AVC
Format/Info                      : Advanced Video Codec
Format profile                   : High@L4.1
Format settings, CABAC           : Yes
Format settings, ReFrames        : 4 frames
Codec ID                         : V_MPEG4/ISO/AVC
Duration                         : 1h 22mn
Bit rate                         : 1 907 Kbps
Width                            : 696 pixels
Height                           : 572 pixels
Display aspect ratio             : 1.299
Original display aspect ratio    : 4:3
Frame rate mode                  : Variable
Frame rate                       : 25.000 fps
Color space                      : YUV
Chroma subsampling               : 4:2:0
Bit depth                        : 8 bits
Scan type                        : Progressive
Bits/(Pixel*Frame)               : 0.192
Stream size                      : 1.10 GiB (90%)
Writing library                  : x264 core 142 r2479 dd79a61
Encoding settings                : cabac=1 / ref=3 / deblock=1:0:0 / analyse=0x3:0x113 / me=hex / subme=7 / psy=1 / psy_rd=1.00:0.00 / mixed_ref=1 / me_range=16 / chroma_me=1 / trellis=1 / 8x8dct=1 / cqm=0 / deadzone=21,11 / fast_pskip=1 / chroma_qp_offset=-2 / threads=1 / lookahead_threads=1 / sliced_threads=0 / nr=0 / decimate=1 / interlaced=0 / bluray_compat=0 / constrained_intra=0 / bframes=3 / b_pyramid=2 / b_adapt=1 / b_bias=0 / direct=1 / weightb=1 / open_gop=0 / weightp=2 / keyint=250 / keyint_min=25 / scenecut=40 / intra_refresh=0 / rc_lookahead=40 / rc=crf / mbtree=1 / crf=20.0 / qcomp=0.60 / qpmin=0 / qpmax=69 / qpstep=4 / vbv_maxrate=62500 / vbv_bufsize=78125 / crf_max=0.0 / nal_hrd=none / filler=0 / ip_ratio=1.40 / aq=1:1.00
Default                          : Yes
Forced                           : No
_STATISTICS_WRITING_APP          : mkvmerge v7.1.0 ('Good Love') 32bit built on Jul 27 2014 12:59:18
_STATISTICS_WRITING_DATE_UTC     : 2018-03-14 21:35:38
_STATISTICS_TAGS                 : BPS DURATION NUMBER_OF_FRAMES NUMBER_OF_BYTES
DURATION                         : 01:22:55.200000000
NUMBER_OF_FRAMES                 : 124374
NUMBER_OF_BYTES                  : 1211238084
Color primaries                  : BT.470-6 System B, BT.470-6 System G, BT.601-6 625, BT.1358 625, BT.1700 625 PAL, BT.1700 625 SECAM
Transfer characteristics         : BT.709-5, BT.1361
Matrix coefficients              : BT.601-6 525, BT.1358 525, BT.1700 NTSC, SMPTE 170M

Audio
ID                               : 2
Format                           : MPEG Audio
Format version                   : Version 1
Format profile                   : Layer 2
Codec ID                         : A_MPEG/L2
Codec ID/Hint                    : MP2
Duration                         : 1h 22mn
Bit rate mode                    : Constant
Bit rate                         : 160 Kbps
Channel(s)                       : 2 channels
Sampling rate                    : 48.0 KHz
Compression mode                 : Lossy
Delay relative to video          : -40ms
Stream size                      : 94.9 MiB (8%)
Title                            : Doblaje Cines 1953
Language                         : Spanish
Default                          : Yes
Forced                           : No
_STATISTICS_WRITING_APP          : mkvmerge v7.1.0 ('Good Love') 32bit built on Jul 27 2014 12:59:18
_STATISTICS_WRITING_DATE_UTC     : 2018-03-14 21:35:38
_STATISTICS_TAGS                 : BPS DURATION NUMBER_OF_FRAMES NUMBER_OF_BYTES
DURATION                         : 01:22:55.288000000
NUMBER_OF_FRAMES                 : 207290
NUMBER_OF_BYTES                  : 99499200









Capturas:

Imagen Imagen
Imagen Imagen
Imagen Imagen
Imagen Imagen
Imagen Imagen




Enlace:

1953 Aquel hombre de Tánger (That Man from Tangier) (L. M. Delgado, R. Elwyn, 1953) SATRip VE (Doblaje Cines 1953) by mifune-DCINE.mkv [1.22 Gb] [Info]

DD: https://mega.nz/#!QpZHwS4C!KPYk3ZGbXJ7T ... clFN7d3HDU


Otras copias en la web

TVRip VE: viewtopic.php?f=1002&t=69909&hilit=Aquel+hombre+de+T%C3%A1nger

Volver a “Cine Clásico”

¿Quién está conectado?

Usuarios navegando por este Foro: adesus, kaski y 3 invitados