Madrugada (Antonio Román, 1957) SATRip

Publica y encuentra enlaces p2p de filmes hasta 1980 en esta sección.
DCINE

Mensajes: 335
Registrado: Mar 20 Dic, 2016 15:02

Madrugada (Antonio Román, 1957) SATRip

Mensajepor DCINE » Mar 10 Jul, 2018 08:39

Madrugada
1957

Imagen



DIRECTOR: Antonio Román
PRODUCTORA: Coproducción España-Portugal-Argentina; M. Gómez
GUIÓN: Luis Marquina, Antonio Román (Obra: Antonio Buero Vallejo)
MÚSICA: Cristóbal Halffter
FOTOGRAFÍA: José F. Aguayo



ARGUMENTO Mauricio, un rico y famoso artista plástico, acaba de fallecer y, en su lecho de muerte, intenta, sin éxito, revelarle algo a Amalia. Mauricio no ha dejado testamento, así que Amalia decide reunir a su familia, con la que el pintor no tenía buena relación, y les dice que está moribundo para intentar sacarles alguna información que le permita interpretar las últimas palabras de Mauricio. (FILMAFFINITY) IMDB: https://www.imdb.com/title/tt0050667/

ImagenImagen

Reparto: Zully Moreno, Luis Peña, Antonio Prieto, Mari Carmen Díaz de Mendoza, Mara Cruz, José Luis López Vázquez, Manuel Díaz González, María Francés



Datos Técnicos:


Código: Seleccionar todo

General:

Complete name                    : 1957 Madrugada (Antonio Román, 1957) SATRip VO RTVE by DCINE.mkv
Format                           : Matroska
Format version                   : Version 4 / Version 2
File size                        : 1.17 GiB
Duration                         : 1h 22mn
Overall bit rate                 : 2 047 Kbps
Encoded date                     : UTC 2017-06-10T14:16:41Z
Writing application              : mkvmerge v7.1.0 ('Good Love') 32bit built on Jul 27 2014 12:59:18
Writing library                  : Lavf55.12.0
DURATION                         : 01:22:04.920000000
NUMBER_OF_FRAMES                 : 205205
NUMBER_OF_BYTES                  : 118198080
_STATISTICS_WRITING_APP          : mkvmerge v7.1.0 ('Good Love') 32bit built on Jul 27 2014 12:59:18
_STATISTICS_WRITING_DATE_UTC     : 2017-06-11 05:32:21
_STATISTICS_TAGS                 : BPS DURATION NUMBER_OF_FRAMES NUMBER_OF_BYTES

Video
ID                               : 1
Format                           : AVC
Format/Info                      : Advanced Video Codec
Format profile                   : High@L4.1
Format settings, CABAC           : Yes
Format settings, ReFrames        : 8 frames
Codec ID                         : V_MPEG4/ISO/AVC
Duration                         : 1h 22mn
Bit rate                         : 1 854 Kbps
Width                            : 716 pixels
Height                           : 572 pixels
Display aspect ratio             : 4:3
Frame rate mode                  : Variable
Frame rate                       : 25.000 fps
Color space                      : YUV
Chroma subsampling               : 4:2:0
Bit depth                        : 8 bits
Scan type                        : Progressive
Bits/(Pixel*Frame)               : 0.181
Stream size                      : 1.04 GiB (89%)
Writing library                  : x264 core 142 r2479 dd79a61
Encoding settings                : cabac=1 / ref=8 / deblock=1:-1:-1 / analyse=0x3:0x133 / me=umh / subme=9 / psy=1 / psy_rd=1.00:0.15 / mixed_ref=1 / me_range=16 / chroma_me=1 / trellis=2 / 8x8dct=1 / cqm=0 / deadzone=21,11 / fast_pskip=1 / chroma_qp_offset=-3 / threads=1 / lookahead_threads=1 / sliced_threads=0 / nr=0 / decimate=1 / interlaced=0 / bluray_compat=0 / constrained_intra=0 / bframes=3 / b_pyramid=2 / b_adapt=2 / b_bias=0 / direct=3 / weightb=1 / open_gop=0 / weightp=2 / keyint=250 / keyint_min=25 / scenecut=40 / intra_refresh=0 / rc_lookahead=60 / rc=abr / mbtree=1 / bitrate=1854 / ratetol=1.0 / qcomp=0.60 / qpmin=0 / qpmax=69 / qpstep=4 / vbv_maxrate=62500 / vbv_bufsize=78125 / nal_hrd=none / filler=0 / ip_ratio=1.40 / aq=1:1.00
Default                          : Yes
Forced                           : No
DURATION                         : 01:22:04.680000000
NUMBER_OF_FRAMES                 : 123117
NUMBER_OF_BYTES                  : 1141084169
_STATISTICS_WRITING_APP          : mkvmerge v7.1.0 ('Good Love') 32bit built on Jul 27 2014 12:59:18
_STATISTICS_WRITING_DATE_UTC     : 2017-06-11 05:32:21
_STATISTICS_TAGS                 : BPS DURATION NUMBER_OF_FRAMES NUMBER_OF_BYTES
Color primaries                  : BT.470-6 System B, BT.470-6 System G, BT.601-6 625, BT.1358 625, BT.1700 625 PAL, BT.1700 625 SECAM
Transfer characteristics         : BT.709-5, BT.1361
Matrix coefficients              : BT.601-6 525, BT.1358 525, BT.1700 NTSC, SMPTE 170M

Audio
ID                               : 2
Format                           : MPEG Audio
Format version                   : Version 1
Format profile                   : Layer 2
Codec ID                         : A_MPEG/L2
Codec ID/Hint                    : MP2
Duration                         : 1h 22mn
Bit rate mode                    : Constant
Bit rate                         : 192 Kbps
Channel(s)                       : 2 channels
Sampling rate                    : 48.0 KHz
Compression mode                 : Lossy
Delay relative to video          : -80ms
Stream size                      : 113 MiB (9%)
Default                          : Yes
Forced                           : No







Capturas:

Imagen Imagen
Imagen Imagen
Imagen Imagen
Imagen Imagen
Imagen Imagen




Enlace:


1957 Madrugada (Antonio Román, 1957) SATRip VO RTVE by DCINE.mkv [1.17 Gb] [Info]


DD: https://mega.nz/#!R1ZClYBB!hPyaB_bh8Zq0 ... -Et-zn4Z0M

Avatar de Usuario
duegno

Mensajes: 246
Registrado: Dom 28 Ago, 2011 13:28

Re: Madrugada (Antonio Román, 1957) SATRip

Mensajepor duegno » Mar 10 Jul, 2018 10:45

Gracias. Ciudadano Kane a la española, por lo que leo.


Volver a “Cine Clásico”

¿Quién está conectado?

Usuarios navegando por este Foro: aguynoe1993 y 0 invitados