La carga de los jinetes indios (Gordon Douglas, 1953) SATRip Dual SE

Publica y encuentra enlaces p2p de filmes hasta 1980 en esta sección.
DCINE

Mensajes: 291
Registrado: Mar 20 Dic, 2016 15:02

La carga de los jinetes indios (Gordon Douglas, 1953) SATRip Dual SE

Mensajepor DCINE » Lun 09 Jul, 2018 08:12

La carga de los jinetes indios
(The Charge at Feather River)

1953

Imagen



DIRECTOR: Gordon Douglas
PRODUCTORA: Warner Bros. Pictures
GUIÓN: James R. Webb
MÚSICA: Max Steiner
FOTOGRAFÍA: J. Peverell Marley

Imagen

ARGUMENTO Una expedición de rescate, formada por hombres inexpertos, debe liberar a dos mujeres blancas que han sido secuestradas por los indios cheyenne. (FILMAFFINITY) IMDB: https://www.imdb.com/title/tt0045621/

ImagenImagen
ImagenImagen
ImagenImagen
ImagenImagen
ImagenImagen
ImagenImagen


ImagenImagen
Imagen

Reparto: Guy Madison, Vera Miles, Frank Lovejoy, Helen Westcott, Dick Wesson, Neville Brand, Dub Taylor

Doblaje Cines 1954: http://www.eldoblaje.com/datos/FichaPel ... p?id=16573


Datos Técnicos:

Pese a que no respeta el 1.33 original, la calidad de imagen es aceptable y el color muy bueno (comparado con la chapuza de Llamentol), es la mejor copia que hay, merece la pena conservarla, sobretodo por el doblaje, que estaba inaccesible, hasta ahora.

Código: Seleccionar todo

General:

Complete name                    : 1953 La carga de los jinetes indios (The charge at feather river) (G. Douglas, 1953) SATRip Dual (Spa (Doblaje Cines 1954)-Eng) SE RTVE by DCINE.mkv
Format                           : Matroska
Format version                   : Version 4 / Version 2
File size                        : 1.35 GiB
Duration                         : 1h 32mn
Overall bit rate                 : 2 089 Kbps
Movie name                       : 1953 La carga de los jinetes indios/The charge at feather river (Gordon Douglas, 1953) SATRip Dual (Spa (Doblaje Cines 1954)-Eng) SE RTVE by DCINE.mkv
Encoded date                     : UTC 2018-07-05T21:27:06Z
Writing application              : mkvmerge v7.1.0 ('Good Love') 32bit built on Jul 27 2014 12:59:18
Writing library                  : Lavf54.63.104
DURATION                         : 01:32:03.240000000
NUMBER_OF_FRAMES                 : 1083
NUMBER_OF_BYTES                  : 66329
_STATISTICS_WRITING_APP          : mkvmerge v7.1.0 ('Good Love') 32bit built on Jul 27 2014 12:59:18
_STATISTICS_WRITING_DATE_UTC     : 2018-07-06 06:01:25
_STATISTICS_TAGS                 : BPS DURATION NUMBER_OF_FRAMES NUMBER_OF_BYTES

Video
ID                               : 1
Format                           : AVC
Format/Info                      : Advanced Video Codec
Format profile                   : High@L4.1
Format settings, CABAC           : Yes
Format settings, ReFrames        : 4 frames
Codec ID                         : V_MPEG4/ISO/AVC
Duration                         : 1h 32mn
Bit rate                         : 1 663 Kbps
Width                            : 716 pixels
Height                           : 568 pixels
Display aspect ratio             : 16:9
Original display aspect ratio    : 16:9
Frame rate mode                  : Variable
Frame rate                       : 25.000 fps
Color space                      : YUV
Chroma subsampling               : 4:2:0
Bit depth                        : 8 bits
Scan type                        : Progressive
Bits/(Pixel*Frame)               : 0.164
Stream size                      : 1.08 GiB (80%)
Writing library                  : x264 core 142 r2479 dd79a61
Encoding settings                : cabac=1 / ref=3 / deblock=1:0:0 / analyse=0x3:0x113 / me=hex / subme=7 / psy=1 / psy_rd=1.00:0.00 / mixed_ref=1 / me_range=16 / chroma_me=1 / trellis=1 / 8x8dct=1 / cqm=0 / deadzone=21,11 / fast_pskip=1 / chroma_qp_offset=-2 / threads=1 / lookahead_threads=1 / sliced_threads=0 / nr=0 / decimate=1 / interlaced=0 / bluray_compat=0 / constrained_intra=0 / bframes=3 / b_pyramid=2 / b_adapt=1 / b_bias=0 / direct=1 / weightb=1 / open_gop=0 / weightp=2 / keyint=250 / keyint_min=25 / scenecut=40 / intra_refresh=0 / rc_lookahead=40 / rc=crf / mbtree=1 / crf=20.0 / qcomp=0.60 / qpmin=0 / qpmax=69 / qpstep=4 / vbv_maxrate=62500 / vbv_bufsize=78125 / crf_max=0.0 / nal_hrd=none / filler=0 / ip_ratio=1.40 / aq=1:1.00
Default                          : Yes
Forced                           : No
DURATION                         : 01:32:46.800000000
NUMBER_OF_FRAMES                 : 139170
NUMBER_OF_BYTES                  : 1184595496
_STATISTICS_WRITING_APP          : mkvmerge v7.1.0 ('Good Love') 32bit built on Jul 27 2014 12:59:18
_STATISTICS_WRITING_DATE_UTC     : 2018-07-06 06:01:25
_STATISTICS_TAGS                 : BPS DURATION NUMBER_OF_FRAMES NUMBER_OF_BYTES
Color primaries                  : BT.470-6 System B, BT.470-6 System G, BT.601-6 625, BT.1358 625, BT.1700 625 PAL, BT.1700 625 SECAM
Transfer characteristics         : BT.709-5, BT.1361
Matrix coefficients              : BT.601-6 525, BT.1358 525, BT.1700 NTSC, SMPTE 170M

Audio #1
ID                               : 2
Format                           : MPEG Audio
Format version                   : Version 1
Format profile                   : Layer 2
Codec ID                         : A_MPEG/L2
Codec ID/Hint                    : MP2
Duration                         : 1h 32mn
Bit rate mode                    : Constant
Bit rate                         : 192 Kbps
Channel(s)                       : 2 channels
Sampling rate                    : 48.0 KHz
Compression mode                 : Lossy
Delay relative to video          : -58ms
Stream size                      : 127 MiB (9%)
Title                            : Doblaje Cines 1954
Language                         : Spanish
Default                          : Yes
Forced                           : Yes
DURATION                         : 01:32:46.920000000
NUMBER_OF_FRAMES                 : 231955
NUMBER_OF_BYTES                  : 133606080
_STATISTICS_WRITING_APP          : mkvmerge v7.1.0 ('Good Love') 32bit built on Jul 27 2014 12:59:18
_STATISTICS_WRITING_DATE_UTC     : 2018-07-06 06:01:25
_STATISTICS_TAGS                 : BPS DURATION NUMBER_OF_FRAMES NUMBER_OF_BYTES

Audio #2
ID                               : 3
Format                           : MPEG Audio
Format version                   : Version 1
Format profile                   : Layer 2
Codec ID                         : A_MPEG/L2
Codec ID/Hint                    : MP2
Duration                         : 1h 32mn
Bit rate mode                    : Constant
Bit rate                         : 192 Kbps
Channel(s)                       : 2 channels
Sampling rate                    : 48.0 KHz
Compression mode                 : Lossy
Delay relative to video          : -58ms
Stream size                      : 127 MiB (9%)
Language                         : qaa
Default                          : No
Forced                           : No
DURATION                         : 01:32:46.920000000
NUMBER_OF_FRAMES                 : 231955
NUMBER_OF_BYTES                  : 133606080
_STATISTICS_WRITING_APP          : mkvmerge v7.1.0 ('Good Love') 32bit built on Jul 27 2014 12:59:18
_STATISTICS_WRITING_DATE_UTC     : 2018-07-06 06:01:25
_STATISTICS_TAGS                 : BPS DURATION NUMBER_OF_FRAMES NUMBER_OF_BYTES

Text
ID                               : 4
Format                           : UTF-8
Codec ID                         : S_TEXT/UTF8
Codec ID/Info                    : UTF-8 Plain Text
Title                            : Completos
Language                         : Spanish
Default                          : No
Forced                           : No










Capturas:

Imagen Imagen
Imagen Imagen
Imagen Imagen
Imagen Imagen
Imagen Imagen




Enlace:

1953 La carga de los jinetes indios (The charge at feather river) (G. Douglas, 1953) SATRip Dual (Spa (Doblaje Cines 1954)-Eng) SE RTVE by DCINE.mkv [1.35 Gb] [Info]

DD: https://mega.nz/#!FpQ2hKDI!8Phns1XDCoMi ... MEPkcrPdtE

Avatar de Usuario
WalterBurns

Mensajes: 901
Registrado: Dom 11 Oct, 2015 15:08

Re: La carga de los jinetes indios (Gordon Douglas, 1953) SATRip Dual SE

Mensajepor WalterBurns » Mié 11 Jul, 2018 16:19

Gracias por compartirla.

chesterlampara

Mensajes: 13
Registrado: Jue 31 Ene, 2013 07:25

Re: La carga de los jinetes indios (Gordon Douglas, 1953) SATRip Dual SE

Mensajepor chesterlampara » Mié 11 Jul, 2018 23:16

Muchas gracias.


Volver a “Cine Clásico”

¿Quién está conectado?

Usuarios navegando por este Foro: DotBot y 3 invitados