El puente de la paz (Rafael J. Salvia, 1958) SATRip

Publica y encuentra enlaces p2p de filmes hasta 1980 en esta sección.
DCINE

Mensajes: 291
Registrado: Mar 20 Dic, 2016 15:02

El puente de la paz (Rafael J. Salvia, 1958) SATRip

Mensajepor DCINE » Vie 06 Jul, 2018 08:46

El puente de la paz
1958

Imagen



DIRECTOR: Rafael J. Salvia
PRODUCTORA: Asturias Films
GUIÓN: Pedro Masó, Miguel Mihura, Rafael J. Salvia (Historia: Miguel Mihura, Rafael J. Salvia)
MÚSICA: Jesús Romo
FOTOGRAFÍA: Federico G. Larraya, Ted Pahle



ARGUMENTO Los caciques de dos pueblos rivales separados por un río acuerdan construir un puente que unos ambos pueblos y comenzar a limar las asperezas que otros años habían tenido. La construcción supondrá una tarea ardua, ya que ninguno de los dos ha contado con la opinión del propietario de las tierras donde se iba a construir el puente. (FILMAFFINITY) IMDB: https://www.imdb.com/title/tt0050865/

Imagen

Reparto: José Luis Ozores, Manolo Morán, Elisa Montés, Antonio Ozores, Ángel Ter, María Isbert, Alfredo Landa, Ramón Giner, Juan Calvo, Antonio Casas, Goyo Lebrero


Datos Técnicos:

Código: Seleccionar todo

General:

Complete name                    : 1958 El puente de la paz (Rafael J. Salvia, 1956) SATRip VO Subt ESP RTVE by DCINE.mkv
Format                           : Matroska
Format version                   : Version 4 / Version 2
File size                        : 1.09 GiB
Duration                         : 1h 33mn
Overall bit rate                 : 1 661 Kbps
Movie name                       : 1958 El puente de la paz (Rafael J. Salvia, 1956) SATRip VO Subt ESP RTVE by DCINE.mkv
Encoded date                     : UTC 2018-07-03T21:42:38Z
Writing application              : mkvmerge v7.1.0 ('Good Love') 32bit built on Jul 27 2014 12:59:18
Writing library                  : Lavf54.63.104
DURATION                         : 01:31:52.520000000
NUMBER_OF_FRAMES                 : 1575
NUMBER_OF_BYTES                  : 76703
_STATISTICS_WRITING_APP          : mkvmerge v7.1.0 ('Good Love') 32bit built on Jul 27 2014 12:59:18
_STATISTICS_WRITING_DATE_UTC     : 2018-07-04 06:18:50
_STATISTICS_TAGS                 : BPS DURATION NUMBER_OF_FRAMES NUMBER_OF_BYTES

Video
ID                               : 1
Format                           : AVC
Format/Info                      : Advanced Video Codec
Format profile                   : High@L4.1
Format settings, CABAC           : Yes
Format settings, ReFrames        : 5 frames
Codec ID                         : V_MPEG4/ISO/AVC
Duration                         : 1h 33mn
Bit rate                         : 1 436 Kbps
Width                            : 538 pixels
Height                           : 576 pixels
Display aspect ratio             : 4:3
Frame rate mode                  : Variable
Frame rate                       : 25.000 fps
Color space                      : YUV
Chroma subsampling               : 4:2:0
Bit depth                        : 8 bits
Scan type                        : Progressive
Bits/(Pixel*Frame)               : 0.185
Stream size                      : 965 MiB (86%)
Writing library                  : x264 core 142 r2479 dd79a61
Encoding settings                : cabac=1 / ref=5 / deblock=1:0:0 / analyse=0x3:0x113 / me=umh / subme=8 / psy=1 / psy_rd=1.00:0.00 / mixed_ref=1 / me_range=16 / chroma_me=1 / trellis=1 / 8x8dct=1 / cqm=0 / deadzone=21,11 / fast_pskip=1 / chroma_qp_offset=-2 / threads=1 / lookahead_threads=1 / sliced_threads=0 / nr=0 / decimate=1 / interlaced=0 / bluray_compat=0 / constrained_intra=0 / bframes=3 / b_pyramid=2 / b_adapt=2 / b_bias=0 / direct=3 / weightb=1 / open_gop=0 / weightp=2 / keyint=250 / keyint_min=25 / scenecut=40 / intra_refresh=0 / rc_lookahead=50 / rc=crf / mbtree=1 / crf=20.0 / qcomp=0.60 / qpmin=0 / qpmax=69 / qpstep=4 / vbv_maxrate=62500 / vbv_bufsize=78125 / crf_max=0.0 / nal_hrd=none / filler=0 / ip_ratio=1.40 / aq=1:1.00
Default                          : Yes
Forced                           : No
DURATION                         : 01:33:55.320000000
NUMBER_OF_FRAMES                 : 140883
NUMBER_OF_BYTES                  : 1033640984
_STATISTICS_WRITING_APP          : mkvmerge v7.1.0 ('Good Love') 32bit built on Jul 27 2014 12:59:18
_STATISTICS_WRITING_DATE_UTC     : 2018-07-04 06:18:50
_STATISTICS_TAGS                 : BPS DURATION NUMBER_OF_FRAMES NUMBER_OF_BYTES
Color primaries                  : BT.470-6 System B, BT.470-6 System G, BT.601-6 625, BT.1358 625, BT.1700 625 PAL, BT.1700 625 SECAM
Transfer characteristics         : BT.709-5, BT.1361
Matrix coefficients              : BT.601-6 525, BT.1358 525, BT.1700 NTSC, SMPTE 170M

Audio
ID                               : 2
Format                           : MPEG Audio
Format version                   : Version 1
Format profile                   : Layer 2
Codec ID                         : A_MPEG/L2
Codec ID/Hint                    : MP2
Duration                         : 1h 33mn
Bit rate mode                    : Constant
Bit rate                         : 192 Kbps
Channel(s)                       : 2 channels
Sampling rate                    : 48.0 KHz
Compression mode                 : Lossy
Delay relative to video          : -59ms
Stream size                      : 129 MiB (12%)
Language                         : Spanish
Default                          : Yes
Forced                           : No
DURATION                         : 01:33:55.440000000
NUMBER_OF_FRAMES                 : 234810
NUMBER_OF_BYTES                  : 135250560
_STATISTICS_WRITING_APP          : mkvmerge v7.1.0 ('Good Love') 32bit built on Jul 27 2014 12:59:18
_STATISTICS_WRITING_DATE_UTC     : 2018-07-04 06:18:50
_STATISTICS_TAGS                 : BPS DURATION NUMBER_OF_FRAMES NUMBER_OF_BYTES

Text
ID                               : 3
Format                           : UTF-8
Codec ID                         : S_TEXT/UTF8
Codec ID/Info                    : UTF-8 Plain Text
Title                            : Completos para sordos
Language                         : Spanish
Default                          : No
Forced                           : No








Capturas:

Imagen Imagen
Imagen Imagen
Imagen Imagen
Imagen Imagen
Imagen Imagen




Enlace:

1958 El puente de la paz (Rafael J. Salvia, 1956) SATRip VO Subt ESP RTVE by DCINE.mkv [1.09 Gb] [Info]

DD: https://mega.nz/#!9soUTQgJ!OJVqQg1GftDV ... zR7_fog_FI

Avatar de Usuario
janca

Mensajes: 1949
Registrado: Dom 20 Dic, 2009 09:31

Re: El puente de la paz (Rafael J. Salvia, 1958) SATRip

Mensajepor janca » Sab 07 Jul, 2018 08:37

Divertida con un gran elenco de secundarios. gracias DCINE


Volver a “Cine Clásico”

¿Quién está conectado?

Usuarios navegando por este Foro: Google [Bot], SemrushBot, Yandex [Bot] y 2 invitados