Pasión en el mar (Arturo Ruiz Castillo, 1956) SATRip VE

Publica y encuentra enlaces p2p de filmes hasta 1980 en esta sección.
DCINE

Mensajes: 335
Registrado: Mar 20 Dic, 2016 15:02

Pasión en el mar (Arturo Ruiz Castillo, 1956) SATRip VE

Mensajepor DCINE » Mié 04 Jul, 2018 08:40

Pasión en el mar
(L'île des désespérés/Le feu des passions)

1956

Imagen



DIRECTOR: Arturo Ruiz Castillo
PRODUCTORA: Coproducción España-Francia; Interamericana / Eos Films. Distribuida por Eos Films
GUIÓN: Clemente Pamplona, Jesús Vasallo, Arturo Ruiz Castillo
MÚSICA: Salvador Ruiz de Luna
FOTOGRAFÍA: José F. Aguayo

ImagenImagen

ARGUMENTO Tratando de salir de la miseria, un pescador decide dedicarse al contrabando, llegando incluso a utilizar a sus mejores amigos. Su falta de ética se hará aún mayor cuando se convierta en el amante de la novia de su hermano. (FILMAFFINITY) IMDB: https://www.imdb.com/title/tt0049599/

Imagen
Imagen

Reparto: Conrado San Martín, Pascale Roberts, Jean Danet, Fernando Sancho, María Rivas, Mariano Azaña, Xan das Bolas, José Moratalla, Fernando Nogueras, José Prada, Rufino Inglés, Manuel Guitián, Pedro Valdivieso, Héctor Sánchez, Ana María Moreau, Rafael Bardem

Doblaje Cines 1956: www.eldoblaje.com/datos/FichaPelicula.asp?id=40830

Datos Técnicos:

Código: Seleccionar todo

General:

Complete name                    : 1956 Pasión en el mar (L'île des désespérés) (Arturo Ruiz Castillo, 1956) SATRip VE (Doblaje Cines 1956) Subt ESP RTVE by DCINE.mkv
Format                           : Matroska
Format version                   : Version 4 / Version 2
File size                        : 916 MiB
Duration                         : 1h 22mn
Overall bit rate                 : 1 557 Kbps
Movie name                       : 1956 Pasión en el mar/L'île des désespérés (Arturo Ruiz Castillo, 1956) SATRip VE (Doblaje Cines 1956) Subt ESP RTVE by DCINE.mkv
Encoded date                     : UTC 2018-07-02T20:25:53Z
Writing application              : mkvmerge v7.1.0 ('Good Love') 32bit built on Jul 27 2014 12:59:18
Writing library                  : Lavf54.63.104
DURATION                         : 01:21:37.100000000
NUMBER_OF_FRAMES                 : 964
NUMBER_OF_BYTES                  : 63772
_STATISTICS_WRITING_APP          : mkvmerge v7.1.0 ('Good Love') 32bit built on Jul 27 2014 12:59:18
_STATISTICS_WRITING_DATE_UTC     : 2018-07-03 06:49:21
_STATISTICS_TAGS                 : BPS DURATION NUMBER_OF_FRAMES NUMBER_OF_BYTES

Video
ID                               : 1
Format                           : AVC
Format/Info                      : Advanced Video Codec
Format profile                   : High@L4.1
Format settings, CABAC           : Yes
Format settings, ReFrames        : 5 frames
Codec ID                         : V_MPEG4/ISO/AVC
Duration                         : 1h 22mn
Bit rate                         : 1 334 Kbps
Width                            : 538 pixels
Height                           : 576 pixels
Display aspect ratio             : 4:3
Frame rate mode                  : Variable
Frame rate                       : 25.000 fps
Color space                      : YUV
Chroma subsampling               : 4:2:0
Bit depth                        : 8 bits
Scan type                        : Progressive
Bits/(Pixel*Frame)               : 0.172
Stream size                      : 785 MiB (86%)
Writing library                  : x264 core 142 r2479 dd79a61
Encoding settings                : cabac=1 / ref=5 / deblock=1:0:0 / analyse=0x3:0x113 / me=umh / subme=8 / psy=1 / psy_rd=1.00:0.00 / mixed_ref=1 / me_range=16 / chroma_me=1 / trellis=1 / 8x8dct=1 / cqm=0 / deadzone=21,11 / fast_pskip=1 / chroma_qp_offset=-2 / threads=1 / lookahead_threads=1 / sliced_threads=0 / nr=0 / decimate=1 / interlaced=0 / bluray_compat=0 / constrained_intra=0 / bframes=3 / b_pyramid=2 / b_adapt=2 / b_bias=0 / direct=3 / weightb=1 / open_gop=0 / weightp=2 / keyint=250 / keyint_min=25 / scenecut=40 / intra_refresh=0 / rc_lookahead=50 / rc=crf / mbtree=1 / crf=20.0 / qcomp=0.60 / qpmin=0 / qpmax=69 / qpstep=4 / vbv_maxrate=62500 / vbv_bufsize=78125 / crf_max=0.0 / nal_hrd=none / filler=0 / ip_ratio=1.40 / aq=1:1.00
Default                          : Yes
Forced                           : No
DURATION                         : 01:22:16.320000000
NUMBER_OF_FRAMES                 : 123408
NUMBER_OF_BYTES                  : 840844073
_STATISTICS_WRITING_APP          : mkvmerge v7.1.0 ('Good Love') 32bit built on Jul 27 2014 12:59:18
_STATISTICS_WRITING_DATE_UTC     : 2018-07-03 06:49:21
_STATISTICS_TAGS                 : BPS DURATION NUMBER_OF_FRAMES NUMBER_OF_BYTES
Color primaries                  : BT.470-6 System B, BT.470-6 System G, BT.601-6 625, BT.1358 625, BT.1700 625 PAL, BT.1700 625 SECAM
Transfer characteristics         : BT.709-5, BT.1361
Matrix coefficients              : BT.601-6 525, BT.1358 525, BT.1700 NTSC, SMPTE 170M

Audio
ID                               : 2
Format                           : MPEG Audio
Format version                   : Version 1
Format profile                   : Layer 2
Codec ID                         : A_MPEG/L2
Codec ID/Hint                    : MP2
Duration                         : 1h 22mn
Bit rate mode                    : Constant
Bit rate                         : 192 Kbps
Channel(s)                       : 2 channels
Sampling rate                    : 48.0 KHz
Compression mode                 : Lossy
Delay relative to video          : -59ms
Stream size                      : 113 MiB (12%)
Title                            : Doblaje Cines 1956
Language                         : Spanish
Default                          : Yes
Forced                           : No
DURATION                         : 01:22:16.440000000
NUMBER_OF_FRAMES                 : 205680
NUMBER_OF_BYTES                  : 118471680
_STATISTICS_WRITING_APP          : mkvmerge v7.1.0 ('Good Love') 32bit built on Jul 27 2014 12:59:18
_STATISTICS_WRITING_DATE_UTC     : 2018-07-03 06:49:21
_STATISTICS_TAGS                 : BPS DURATION NUMBER_OF_FRAMES NUMBER_OF_BYTES

Text
ID                               : 3
Format                           : UTF-8
Codec ID                         : S_TEXT/UTF8
Codec ID/Info                    : UTF-8 Plain Text
Title                            : Completos para sordos
Language                         : Spanish
Default                          : No
Forced                           : No








Capturas:

Imagen Imagen
Imagen Imagen
Imagen Imagen
Imagen Imagen
Imagen Imagen




Enlace:

1956 Pasión en el mar (L(L'île des désespérés) (Arturo Ruiz Castillo, 1956) SATRip VE (Doblaje Cines 1956) Subt ESP RTVE by DCINE.mkv [916.04 Mb] [Info]

DD: https://mega.nz/#!Nl5GgCLL!GntvyIVW1wk_ ... i0PwgthAy8

joramor

Mensajes: 1405
Registrado: Vie 05 Nov, 2010 19:55

Re: Pasión en el mar (Arturo Ruiz Castillo, 1956) SATRip VE

Mensajepor joramor » Mié 04 Jul, 2018 20:13

Muchas gracias DCINE. Salu2.


Volver a “Cine Clásico”

¿Quién está conectado?

Usuarios navegando por este Foro: Yahoo [Bot] y 1 invitado