Tedeum (Enzo G. Castellari, 1972) SATRip VE

Publica y encuentra enlaces p2p de filmes hasta 1980 en esta sección.
DCINE

Mensajes: 326
Registrado: Mar 20 Dic, 2016 15:02

Tedeum (Enzo G. Castellari, 1972) SATRip VE

Mensajepor DCINE » Mar 03 Jul, 2018 09:38

Tedeum
1972

Imagen



DIRECTOR: Enzo G. Castellari
PRODUCTORA: Coproducción Italia-España; F.P. Cinematografica / Canaria Films / Tecisa
GUIÓN: Tito Carpi, Giovanni Simonelli, José Gutiérrez Maesso, Enzo G. Castellari
MÚSICA: Guido De Angelis, Maurizio De Angelis
FOTOGRAFÍA: Manuel Rojas



ARGUMENTO Al morir un viejo minero deja en herencia una mina a la familia de Stinky Brown. Cuando el abogado del difunto se lo comunica a los Brown, produce una enorme hilaridad. Todos saben, menos el abogado, que el viejo minero traficaba con minas inexistentes. El hijo de los Brown, Tedeum, llega en el preciso momento para evitar que el papel de concesión de la mina les sea robado a los Brown por parte de los esbirros de Grant. Tedeum no cree en la mina, pero se propone traficar pícaramente con ella. Asistimos así a las aventuras de Tedeum, que encuentra en su camino a un tipo gigantesco que llaman el "Pequeño", falso fraile, que comienza a sospechar de la verdadera existencia de la mina... (FILMAFFINITY) IMDB: https://www.imdb.com/title/tt0069352/



Reparto: Jack Palance, Giancarlo Prete, Lionel Stander, Francesca Romana Coluzzi, Mabel Karin, Eduardo Fajardo, Riccardo Garrone, Miguel Pedregosa, María Vico, Rocco Lerro, Renzo Palmer

Doblaje Cines 1973: http://www.eldoblaje.com/datos/FichaPel ... p?id=18380

Datos Técnicos:

Código: Seleccionar todo

General:

Complete name                    : 1972 Tedeum (Enzo G. Castellari, 1972) SATRip VE (Doblaje Cines 1973) RTVE by DCINE.mkv
Format                           : Matroska
Format version                   : Version 4 / Version 2
File size                        : 1.41 GiB
Duration                         : 1h 33mn
Overall bit rate                 : 2 144 Kbps
Encoded date                     : UTC 2017-06-28T12:51:37Z
Writing application              : mkvmerge v7.1.0 ('Good Love') 32bit built on Jul 27 2014 12:59:18
Writing library                  : Lavf55.12.0
DURATION                         : 01:33:53.160000000
NUMBER_OF_FRAMES                 : 234715
NUMBER_OF_BYTES                  : 135195840
_STATISTICS_WRITING_APP          : mkvmerge v7.1.0 ('Good Love') 32bit built on Jul 27 2014 12:59:18
_STATISTICS_WRITING_DATE_UTC     : 2017-06-28 17:09:22
_STATISTICS_TAGS                 : BPS DURATION NUMBER_OF_FRAMES NUMBER_OF_BYTES

Video
ID                               : 1
Format                           : AVC
Format/Info                      : Advanced Video Codec
Format profile                   : High@L4.1
Format settings, CABAC           : Yes
Format settings, ReFrames        : 4 frames
Codec ID                         : V_MPEG4/ISO/AVC
Duration                         : 1h 33mn
Bit rate                         : 1 909 Kbps
Width                            : 698 pixels
Height                           : 432 pixels
Display aspect ratio             : 2.35:1
Frame rate mode                  : Variable
Frame rate                       : 25.000 fps
Color space                      : YUV
Chroma subsampling               : 4:2:0
Bit depth                        : 8 bits
Scan type                        : Progressive
Bits/(Pixel*Frame)               : 0.253
Stream size                      : 1.25 GiB (89%)
Writing library                  : x264 core 142 r2479 dd79a61
Encoding settings                : cabac=1 / ref=3 / deblock=1:0:0 / analyse=0x3:0x113 / me=hex / subme=7 / psy=1 / psy_rd=1.00:0.00 / mixed_ref=1 / me_range=16 / chroma_me=1 / trellis=1 / 8x8dct=1 / cqm=0 / deadzone=21,11 / fast_pskip=1 / chroma_qp_offset=-2 / threads=1 / lookahead_threads=1 / sliced_threads=0 / nr=0 / decimate=1 / interlaced=0 / bluray_compat=0 / constrained_intra=0 / bframes=3 / b_pyramid=2 / b_adapt=1 / b_bias=0 / direct=1 / weightb=1 / open_gop=0 / weightp=2 / keyint=250 / keyint_min=25 / scenecut=40 / intra_refresh=0 / rc_lookahead=40 / rc=crf / mbtree=1 / crf=20.0 / qcomp=0.60 / qpmin=0 / qpmax=69 / qpstep=4 / vbv_maxrate=62500 / vbv_bufsize=78125 / crf_max=0.0 / nal_hrd=none / filler=0 / ip_ratio=1.40 / aq=1:1.00
Language                         : Spanish
Default                          : Yes
Forced                           : No
DURATION                         : 01:33:53.040000000
NUMBER_OF_FRAMES                 : 140826
NUMBER_OF_BYTES                  : 1373245551
_STATISTICS_WRITING_APP          : mkvmerge v7.1.0 ('Good Love') 32bit built on Jul 27 2014 12:59:18
_STATISTICS_WRITING_DATE_UTC     : 2017-06-28 17:09:22
_STATISTICS_TAGS                 : BPS DURATION NUMBER_OF_FRAMES NUMBER_OF_BYTES
Color primaries                  : BT.470-6 System B, BT.470-6 System G, BT.601-6 625, BT.1358 625, BT.1700 625 PAL, BT.1700 625 SECAM
Transfer characteristics         : BT.709-5, BT.1361
Matrix coefficients              : BT.601-6 525, BT.1358 525, BT.1700 NTSC, SMPTE 170M

Audio
ID                               : 2
Format                           : MPEG Audio
Format version                   : Version 1
Format profile                   : Layer 2
Codec ID                         : A_MPEG/L2
Codec ID/Hint                    : MP2
Duration                         : 1h 33mn
Bit rate mode                    : Constant
Bit rate                         : 192 Kbps
Channel(s)                       : 2 channels
Sampling rate                    : 48.0 KHz
Compression mode                 : Lossy
Delay relative to video          : -80ms
Stream size                      : 129 MiB (9%)
Language                         : Spanish
Default                          : Yes
Forced                           : No






Capturas:

Imagen Imagen
Imagen Imagen
Imagen Imagen
Imagen Imagen
Imagen Imagen




Enlace:


1972 Tedeum (Enzo G. Castellari, 1972) SATRip VE (Doblaje Cines 1973) RTVE by DCINE.mkv [1.41 Gb] [Info]


DD: https://mega.nz/#!5pojiCRa!2tQXFqeooM4U ... KatR-H_NsA

Volver a “Cine Clásico”

¿Quién está conectado?

Usuarios navegando por este Foro: adesus, Google [Bot], SemrushBot, Yandex [Bot] y 4 invitados