Moonrise (Frank Borzage, 1948) HD 1080p VOSE

Publica y encuentra enlaces p2p de filmes hasta 1980 en esta sección.
Avatar de Usuario
paizoco

Mensajes: 2383
Registrado: Vie 21 Nov, 2003 01:00
Ubicación: Far West

Moonrise (Frank Borzage, 1948) HD 1080p VOSE

Mensajepor paizoco » Mar 03 Jul, 2018 03:32

Moonrise

IMDB

Imagen

Título original Moonrise

Año 1948

Duración 90 min.

País Estados Unidos

Director Frank Borzage

Guión Charles F. Haas (Novela: Theodore Strauss)

Música William Lava

Fotografía John L. Russell (B&W)

Reparto Dane Clark, Gail Russell, Ethel Barrymore, Allyn Joslyn, Rex Ingram, Lloyd Bridges

Productora Marshall Grant / Republic Pictures

Género Drama. Cine negro | Melodrama

Sinopsis Película que combina a partes iguales cine negro y melodrama romántico. Danny Hawkings, un niño que vive en un pueblo pequeño, es humillado y maltratado por los demás niños porque su padre está en la cárcel por haber asesinado al médico que dejó morir a su mujer. FILMAFFINITY

Premios 1948 Nominada al Oscar: Mejor sonido

DATOS TECNICOS:

Código: Seleccionar todo

Complete name               : N:\EMULE\INCOMING\Frank Borzage - Moonrise.1948.1080p.BluRay.x264-PSYCHD&MrJinx.mkv
Format                      : Matroska
Format version              : Version 4 / Version 2
File size                   : 8.52 GiB
Duration                    : 1 h 30 min
Overall bit rate            : 13.5 Mb/s
Encoded date                : UTC 2018-06-28 20:59:49
Writing application         : mkvmerge v8.2.0 ('World of Adventure') 32bit
Writing library             : libebml v1.3.1 + libmatroska v1.4.2

Video
ID                          : 1
Format                      : AVC
Format/Info                 : Advanced Video Codec
Format profile              : High@L4.1
Format settings, CABAC      : Yes
Format settings, ReFrames   : 5 frames
Codec ID                    : V_MPEG4/ISO/AVC
Duration                    : 1 h 30 min
Bit rate                    : 13.1 Mb/s
Width                       : 1 488 pixels
Height                      : 1 080 pixels
Display aspect ratio        : 1.378
Frame rate mode             : Constant
Frame rate                  : 23.976 (24000/1001) FPS
Color space                 : YUV
Chroma subsampling          : 4:2:0
Bit depth                   : 8 bits
Scan type                   : Progressive
Bits/(Pixel*Frame)          : 0.341
Stream size                 : 8.32 GiB (98%)
Writing library             : x264 core 155 r2901 7d0ff22
Encoding settings           : cabac=1 / ref=5 / deblock=1:-3:-3 / analyse=0x3:0x113 / me=umh / subme=8 / psy=1 / psy_rd=1.00:0.00 / mixed_ref=1 / me_range=32 / chroma_me=1 / trellis=2 / 8x8dct=1 / cqm=0 / deadzone=21,11 / fast_pskip=1 / chroma_qp_offset=-2 / threads=34 / lookahead_threads=5 / sliced_threads=0 / nr=0 / decimate=1 / interlaced=0 / bluray_compat=0 / constrained_intra=0 / bframes=3 / b_pyramid=2 / b_adapt=2 / b_bias=0 / direct=3 / weightb=1 / open_gop=0 / weightp=2 / keyint=240 / keyint_min=24 / scenecut=40 / intra_refresh=0 / rc_lookahead=50 / rc=2pass / mbtree=1 / bitrate=13135 / ratetol=1.0 / qcomp=0.60 / qpmin=0 / qpmax=69 / qpstep=4 / cplxblur=20.0 / qblur=0.5 / ip_ratio=1.40 / aq=3:0.70
Language                    : English
Default                     : Yes
Forced                      : No

Audio
ID                          : 2
Format                      : MPEG Audio
Format version              : Version 1
Format profile              : Layer 3
Codec ID                    : A_MPEG/L3
Codec ID/Hint               : MP3
Duration                    : 1 h 30 min
Bit rate mode               : Constant
Bit rate                    : 320 kb/s
Channel(s)                  : 1 channel
Sampling rate               : 48.0 kHz
Frame rate                  : 41.667 FPS (1152 spf)
Compression mode            : Lossy
Stream size                 : 207 MiB (2%)
Writing library             : LAME3.99r
Encoding settings           : -m m -V 4 -q 3 -lowpass 20.5
Language                    : English
Default                     : Yes
Forced                      : No

Text #1
ID                          : 3
Format                      : UTF-8
Codec ID                    : S_TEXT/UTF8
Codec ID/Info               : UTF-8 Plain Text
Duration                    : 1 h 27 min
Bit rate                    : 44 b/s
Count of elements           : 977
Stream size                 : 28.5 KiB (0%)
Language                    : Spanish
Default                     : Yes
Forced                      : No

Text #2
ID                          : 4
Format                      : UTF-8
Codec ID                    : S_TEXT/UTF8
Codec ID/Info               : UTF-8 Plain Text
Duration                    : 1 h 27 min
Bit rate                    : 53 b/s
Count of elements           : 1008
Stream size                 : 34.3 KiB (0%)
Language                    : English
Default                     : No
Forced                      : No

Text #3
ID                          : 5
Format                      : UTF-8
Codec ID                    : S_TEXT/UTF8
Codec ID/Info               : UTF-8 Plain Text
Duration                    : 1 h 27 min
Bit rate                    : 56 b/s
Count of elements           : 1097
Stream size                 : 36.7 KiB (0%)
Title                       : SDH
Language                    : English
Default                     : No
Forced                      : No

Menu
00:00:00.000                : en:00:00:00.000
00:08:08.905                : en:00:08:08.905
00:15:07.240                : en:00:15:07.240
00:22:21.549                : en:00:22:21.549
00:30:47.596                : en:00:30:47.596
00:39:17.063                : en:00:39:17.063
00:44:37.925                : en:00:44:37.925
00:49:39.393                : en:00:49:39.393
01:00:14.611                : en:01:00:14.611
01:07:46.938                : en:01:07:46.938
01:17:32.398                : en:01:17:32.398
01:24:13.048                : en:01:24:13.048


CAPTURAS:

Imagen

Imagen

Imagen

Imagen

Imagen

Imagen


DETALLES DEL RIPEO:

Ripeo conseguido por torrent, hecho a partir de la reciente edición en Blu-Ray CRITERION, de la cual se puede ver un análisis en Dvdbeaver.

El ripeo es obra de PSYCHD y venía con audio original inglés en FLAC, es decir sin pérdidas con respecto al LPCM original de un canal monoaural proveniente del Blu-Ray. Para reducir su tamaño y, creo
que también para hacerlo más compatible con reproductores de sobremesa e internos de los actuales televisores, lo he convertido a a MP3 a 320 kbps. También venía con subtítulos incorporados en inglés e inglés para sordos que no he tocado, lo que sí le he acoplado los subtítulos en español, disponibles en opensubtitles y subidos por candas, al cual doy las gracias.

ENLACE:

Spoiler: mostrar
Frank Borzage - Moonrise.1948.1080p.BluRay.x264-PSYCHD&MrJinx.mkv [8.52 Gb] [Info]

Avatar de Usuario
Forrest Gump

Mensajes: 1377
Registrado: Vie 18 May, 2007 18:06
Ubicación: Zihuatanejo

Re: Moonrise (Frank Borzage, 1948) HD 1080p VOSE

Mensajepor Forrest Gump » Mar 03 Jul, 2018 04:09

El primero en agradecerte, paizoco. :plas:
No pincho porque ya tengo el BDRip de PSYCHD desde hace unas semanas, pero reitero lo que ya dije en el otro hilo: la peli es simplemente una maravilla de Borzage. Obra maestra del cine.
Made it, Ma, top of the world!

Avatar de Usuario
janca

Mensajes: 1949
Registrado: Dom 20 Dic, 2009 09:31

Re: Moonrise (Frank Borzage, 1948) HD 1080p VOSE

Mensajepor janca » Mar 03 Jul, 2018 06:45

Muchísimas gracias paizoco!!!!

Avatar de Usuario
paizoco

Mensajes: 2383
Registrado: Vie 21 Nov, 2003 01:00
Ubicación: Far West

Re: Moonrise (Frank Borzage, 1948) HD 1080p VOSE

Mensajepor paizoco » Mar 03 Jul, 2018 14:10

Forrest Gump escribió:El primero en agradecerte, paizoco. :plas:
No pincho porque ya tengo el BDRip de PSYCHD desde hace unas semanas, pero reitero lo que ya dije en el otro hilo: la peli es simplemente una maravilla de Borzage. Obra maestra del cine.


Yo opino igual que tú Forrest, vi la película por primera vez hace muy poco tiempo y me pareció lo más parecido a una obra maestra. Es la mejor película que he visto en algún tiempo.

ostrata

Mensajes: 1344
Registrado: Mié 24 Mar, 2010 17:29

Re: Moonrise (Frank Borzage, 1948) HD 1080p VOSE

Mensajepor ostrata » Mar 03 Jul, 2018 16:51

Gracias. :)

Saludos.

Avatar de Usuario
eulsus

Mensajes: 628
Registrado: Vie 18 May, 2007 10:41
Ubicación: La Palma

Re: Moonrise (Frank Borzage, 1948) HD 1080p VOSE

Mensajepor eulsus » Mar 03 Jul, 2018 19:27

Muchas gracias, paizoco. Habrá que echarle una visual este verano.
Gail Russell es la actriz con los ojos más bonitos junto a Ella Raines. :lol:
Imagen
Antonio García-Trevijano Forte (1927-2018)
"Para que yo sea libre, todos tienen que ser libres"

Abstención activa hasta que haya Libertad Colectiva


Volver a “Cine Clásico”

¿Quién está conectado?

Usuarios navegando por este Foro: Yandex [Bot] y 2 invitados