Los pajaritos (Antonio Mercero, 1974) DVDRip VO

Aquí tienen cabida todas aquellas series, programas, anuncios, etc. que tragamos durante tantos años, cuando no existía Internet y ni siquiera podíamos elegir.
DCINE

Mensajes: 329
Registrado: Mar 20 Dic, 2016 15:02

Los pajaritos (Antonio Mercero, 1974) DVDRip VO

Mensajepor DCINE » Jue 17 May, 2018 10:05

Homenaje a Mercero

Los pajaritos
1974

Imagen



DIRECTOR: Antonio Mercero
PRODUCTORA: Televisión Española (TVE)
GUIÓN: Antonio Mercero
MÚSICA: Carmelo A. Bernaola
FOTOGRAFÍA: Cecilio Paniagua



ARGUMENTO Una pareja de ancianos de Madrid se esfuerzan por proteger el medio ambiente; especialmente a los pajarillos que, últimamente, a causa de una polución cada vez mayor, han estado muriendo en un número cada vez más alarmante. Premio al mejor realizador del Festival de Montecarlo 1974. (FILMAFFINITY) IMDB: https://www.imdb.com/title/tt0205308/



Reparto: Julia Caba Alba, José Orjas, José Franco, Alberto Fernández, Blaki, José Montijano, Roberto Cruz



Datos Técnicos:


Código: Seleccionar todo

General:

Complete name                    : 1974 Los pajaritos (Antonio Mercero, 1974) DVDRip VO by DCINE.mkv
Format                           : Matroska
Format version                   : Version 4 / Version 2
File size                        : 403 MiB
Duration                         : 36mn 40s
Overall bit rate                 : 1 536 Kbps
Movie name                       : 1974 Los pajaritos (Antonio Mercero, 1974) DVDRip VO by DCINE.mkv
Encoded date                     : UTC 2018-05-15T20:42:58Z
Writing application              : mkvmerge v7.1.0 ('Good Love') 32bit built on Jul 27 2014 12:59:18
Writing library                  : Lavf55.12.0
_STATISTICS_WRITING_APP          : mkvmerge v7.1.0 ('Good Love') 32bit built on Jul 27 2014 12:59:18
_STATISTICS_WRITING_DATE_UTC     : 2018-05-16 05:31:48
_STATISTICS_TAGS                 : BPS DURATION NUMBER_OF_FRAMES NUMBER_OF_BYTES
DURATION                         : 00:36:39.984000000
NUMBER_OF_FRAMES                 : 91666
NUMBER_OF_BYTES                  : 35199744

Video
ID                               : 1
Format                           : AVC
Format/Info                      : Advanced Video Codec
Format profile                   : High@L4.1
Format settings, CABAC           : Yes
Format settings, ReFrames        : 8 frames
Codec ID                         : V_MPEG4/ISO/AVC
Duration                         : 36mn 40s
Bit rate                         : 1 377 Kbps
Width                            : 538 pixels
Height                           : 574 pixels
Display aspect ratio             : 4:3
Frame rate mode                  : Variable
Frame rate                       : 25.000 fps
Color space                      : YUV
Chroma subsampling               : 4:2:0
Bit depth                        : 8 bits
Scan type                        : Progressive
Bits/(Pixel*Frame)               : 0.178
Stream size                      : 361 MiB (90%)
Writing library                  : x264 core 142 r2479 dd79a61
Encoding settings                : cabac=1 / ref=8 / deblock=1:0:0 / analyse=0x3:0x133 / me=umh / subme=9 / psy=1 / psy_rd=1.00:0.00 / mixed_ref=1 / me_range=16 / chroma_me=1 / trellis=2 / 8x8dct=1 / cqm=0 / deadzone=21,11 / fast_pskip=1 / chroma_qp_offset=-2 / threads=1 / lookahead_threads=1 / sliced_threads=0 / nr=0 / decimate=1 / interlaced=0 / bluray_compat=0 / constrained_intra=0 / bframes=3 / b_pyramid=2 / b_adapt=2 / b_bias=0 / direct=3 / weightb=1 / open_gop=0 / weightp=2 / keyint=250 / keyint_min=25 / scenecut=40 / intra_refresh=0 / rc_lookahead=60 / rc=crf / mbtree=1 / crf=19.0 / qcomp=0.60 / qpmin=0 / qpmax=69 / qpstep=4 / vbv_maxrate=62500 / vbv_bufsize=78125 / crf_max=0.0 / nal_hrd=none / filler=0 / ip_ratio=1.40 / aq=1:1.00
Default                          : Yes
Forced                           : No
DURATION                         : 00:36:40.280000000
NUMBER_OF_FRAMES                 : 55007
NUMBER_OF_BYTES                  : 386670201
_STATISTICS_WRITING_APP          : mkvmerge v7.1.0 ('Good Love') 32bit built on Jul 27 2014 12:59:18
_STATISTICS_WRITING_DATE_UTC     : 2018-05-16 05:31:48
_STATISTICS_TAGS                 : BPS DURATION NUMBER_OF_FRAMES NUMBER_OF_BYTES
Color primaries                  : BT.470-6 System B, BT.470-6 System G, BT.601-6 625, BT.1358 625, BT.1700 625 PAL, BT.1700 625 SECAM
Transfer characteristics         : BT.709-5, BT.1361
Matrix coefficients              : BT.601-6 525, BT.1358 525, BT.1700 NTSC, SMPTE 170M

Audio
ID                               : 2
Format                           : MPEG Audio
Format version                   : Version 1
Format profile                   : Layer 2
Codec ID                         : A_MPEG/L2
Codec ID/Hint                    : MP2
Duration                         : 36mn 40s
Bit rate mode                    : Constant
Bit rate                         : 128 Kbps
Channel(s)                       : 2 channels
Sampling rate                    : 48.0 KHz
Compression mode                 : Lossy
Delay relative to video          : -80ms
Stream size                      : 33.6 MiB (8%)
Language                         : Spanish
Default                          : No
Forced                           : No

Menu #1
00:00:00.000                     : :Chapter 1
00:09:40.000                     : :Chapter 2
00:21:41.440                     : :Chapter 3
00:36:03.520                     : :Chapter 4

Menu #2
00:00:00.080                     : en:Chapter 01
00:09:39.920                     : en:Chapter 02
00:21:41.360                     : en:Chapter 03
00:36:03.440                     : en:Chapter 04








Capturas:

Imagen
Imagen
Imagen
Imagen

Enlace:

1974 Los pajaritos (Antonio Mercero, 1974) DVDRip VO by DCINE.mkv [402.81 Mb] [Info]

DD: https://mega.nz/#!thp0gBhK!50yYqGIgiAaK ... Q56ku-guz8


Otras copias en la web

DVDRip: viewtopic.php?f=1035&t=45639&hilit=los+pajaritos+1974

Avatar de Usuario
Dardo
Arrow Thrower Clown

Mensajes: 15903
Registrado: Dom 19 Oct, 2003 02:00
Ubicación: Entre Encinas y Dolomías

Re: Los pajaritos (Antonio Mercero, 1974) DVDRip VO

Mensajepor Dardo » Jue 17 May, 2018 21:36

Después de Cerezo eres lo más poderoso en cine español DCINE :sonrisa:

Muchas gracias por tantos títulos recuperados. :plas:

ostrata

Mensajes: 1468
Registrado: Mié 24 Mar, 2010 17:29

Re: Los pajaritos (Antonio Mercero, 1974) DVDRip VO

Mensajepor ostrata » Jue 17 May, 2018 23:06

Gracias. :)

Saludos.


Volver a “Televisión”

¿Quién está conectado?

Usuarios navegando por este Foro: No hay usuarios registrados visitando el Foro y 1 invitado