La cabina (Antonio Mercero, 1972) DVDRip

Aquí tienen cabida todas aquellas series, programas, anuncios, etc. que tragamos durante tantos años, cuando no existía Internet y ni siquiera podíamos elegir.
DCINE

Mensajes: 314
Registrado: Mar 20 Dic, 2016 15:02

La cabina (Antonio Mercero, 1972) DVDRip

Mensajepor DCINE » Jue 17 May, 2018 09:55

Homenaje a Mercero

La cabina
1972

Imagen



DIRECTOR: Antonio Mercero
PRODUCTORA: Televisión Española (TVE)
GUIÓN: Antonio Mercero, José Luis Garci
FOTOGRAFÍA: Federico G. Larraya



ARGUMENTO Producción realizada para la televisión que narra la progresiva angustia de un hombre (López Vázquez) que se queda atrapado en una cabina telefónica. Lo que en principio parece un contratiempo sin trascendencia, se convierte poco a poco en una situación tan inquietante y terrorífica que provoca en el hombre una desesperación y una angustia sin límites. (FILMAFFINITY) IMDB: https://www.imdb.com/title/tt0065513/



Reparto: José Luis López Vázquez, Agustín González, Goyo Lebrero, Tito García, Carmen Martínez Sierra, Carmen Luján, María Vico, Felipe Martín Puertas, José Montijano, Blaki, Antonio Moreno, José Miguel Aguado, José Manuel Hoyos, Moisés García



Datos Técnicos:


Código: Seleccionar todo

General:

Complete name                    : 1972 La cabina (Antonio Mercero, 1972) DVDRip VO by DCINE.mkv
Format                           : Matroska
Format version                   : Version 4 / Version 2
File size                        : 536 MiB
Duration                         : 34mn 27s
Overall bit rate                 : 2 175 Kbps
Movie name                       : 1972 La cabina (Antonio Mercero, 1972) DVDRip VO by DCINE.mkv
Encoded date                     : UTC 2018-05-14T20:32:28Z
Writing application              : mkvmerge v7.1.0 ('Good Love') 32bit built on Jul 27 2014 12:59:18
Writing library                  : Lavf55.12.0
_STATISTICS_WRITING_APP          : mkvmerge v7.1.0 ('Good Love') 32bit built on Jul 27 2014 12:59:18
_STATISTICS_WRITING_DATE_UTC     : 2018-05-15 06:05:36
_STATISTICS_TAGS                 : BPS DURATION NUMBER_OF_FRAMES NUMBER_OF_BYTES
DURATION                         : 00:34:27.024000000
NUMBER_OF_FRAMES                 : 86126
NUMBER_OF_BYTES                  : 33072384

Video
ID                               : 1
Format                           : AVC
Format/Info                      : Advanced Video Codec
Format profile                   : High@L4.1
Format settings, CABAC           : Yes
Format settings, ReFrames        : 8 frames
Codec ID                         : V_MPEG4/ISO/AVC
Duration                         : 34mn 27s
Bit rate                         : 2 003 Kbps
Width                            : 538 pixels
Height                           : 574 pixels
Display aspect ratio             : 4:3
Frame rate mode                  : Variable
Frame rate                       : 25.000 fps
Color space                      : YUV
Chroma subsampling               : 4:2:0
Bit depth                        : 8 bits
Scan type                        : Progressive
Bits/(Pixel*Frame)               : 0.259
Stream size                      : 494 MiB (92%)
Writing library                  : x264 core 142 r2479 dd79a61
Encoding settings                : cabac=1 / ref=8 / deblock=1:0:0 / analyse=0x3:0x133 / me=umh / subme=9 / psy=1 / psy_rd=1.00:0.00 / mixed_ref=1 / me_range=16 / chroma_me=1 / trellis=2 / 8x8dct=1 / cqm=0 / deadzone=21,11 / fast_pskip=1 / chroma_qp_offset=-2 / threads=1 / lookahead_threads=1 / sliced_threads=0 / nr=0 / decimate=1 / interlaced=0 / bluray_compat=0 / constrained_intra=0 / bframes=3 / b_pyramid=2 / b_adapt=2 / b_bias=0 / direct=3 / weightb=1 / open_gop=0 / weightp=2 / keyint=250 / keyint_min=25 / scenecut=40 / intra_refresh=0 / rc_lookahead=60 / rc=crf / mbtree=1 / crf=19.0 / qcomp=0.60 / qpmin=0 / qpmax=69 / qpstep=4 / vbv_maxrate=62500 / vbv_bufsize=78125 / crf_max=0.0 / nal_hrd=none / filler=0 / ip_ratio=1.40 / aq=1:1.00
Default                          : Yes
Forced                           : No
DURATION                         : 00:34:27.320000000
NUMBER_OF_FRAMES                 : 51683
NUMBER_OF_BYTES                  : 528415487
_STATISTICS_WRITING_APP          : mkvmerge v7.1.0 ('Good Love') 32bit built on Jul 27 2014 12:59:18
_STATISTICS_WRITING_DATE_UTC     : 2018-05-15 06:05:36
_STATISTICS_TAGS                 : BPS DURATION NUMBER_OF_FRAMES NUMBER_OF_BYTES
Color primaries                  : BT.470-6 System B, BT.470-6 System G, BT.601-6 625, BT.1358 625, BT.1700 625 PAL, BT.1700 625 SECAM
Transfer characteristics         : BT.709-5, BT.1361
Matrix coefficients              : BT.601-6 525, BT.1358 525, BT.1700 NTSC, SMPTE 170M

Audio
ID                               : 2
Format                           : MPEG Audio
Format version                   : Version 1
Format profile                   : Layer 2
Codec ID                         : A_MPEG/L2
Codec ID/Hint                    : MP2
Duration                         : 34mn 27s
Bit rate mode                    : Constant
Bit rate                         : 128 Kbps
Channel(s)                       : 2 channels
Sampling rate                    : 48.0 KHz
Compression mode                 : Lossy
Delay relative to video          : -80ms
Stream size                      : 31.5 MiB (6%)
Language                         : Spanish
Default                          : No
Forced                           : No

Menu #1
00:00:00.000                     : :Chapter 1
00:10:52.000                     : :Chapter 2
00:20:09.280                     : :Chapter 3
00:33:59.200                     : :Chapter 4

Menu #2
00:00:00.080                     : en:Chapter 01
00:10:51.920                     : en:Chapter 02
00:20:09.200                     : en:Chapter 03
00:33:59.120                     : en:Chapter 04









Capturas:

Imagen
Imagen
Imagen
Imagen

Enlace:

1972 La cabina (Antonio Mercero, 1972( ... o, 1972) DVDRip VO by DCINE.mkv [535.94 Mb] [Info]

DD: https://mega.nz/#!4xp0FZbK!oH7s8qqYIJA3 ... 1DQNrlBDjs


Otras copias en la web:

TVRip/DVDRip: viewtopic.php?f=1035&t=24673&hilit=la+cabina+1972

Avatar de Usuario
Dardo
Arrow Thrower Clown

Mensajes: 15752
Registrado: Dom 19 Oct, 2003 02:00
Ubicación: Entre Encinas y Dolomías

Re: La cabina (Antonio Mercero, 1972) DVDRip

Mensajepor Dardo » Jue 17 May, 2018 21:40

Qué buena.

La temporada de 1972-1973 destaca, sobretodo, en el ámbito internacional, por el éxito de la película "La cabina". Dirigida por Antonio Mercero, sobre un guión de José Luis Garci e interpretada por José Luis López Vázquez.

Al igual que ocurrió anteriormente con "Historias de la frivolidad", necesitó cosechar el éxito internacional para que TVE decidiera emitirla en su programación.

Fue primero exhibida para la crítica que la recibió con gran entusiasmo, tanto por su interpretación y realización, como por la idea. Animada por esta buena acogida se presentó al Festival de Montecarlo, pero el rechazo internacional hacia la dictadura franquista, hizo que no recibiera ni una sóla mención por parte del jurado. La crítica se rebeló y le otorgó por mayoría su premio.

Ante tal éxito, TVE no tiene más remedio que anunciar su emisión, no sin antes censurar algunos minutos de la misma. Finalmente "La cabina" es emitida en La 1 el 13 de diciembre de 1972.

El mediometraje fue emitido en todo el mundo y se convirtió en el programa más premiado de la televisión española.
http://www.rtve.es/rtve/20180131/antoni ... 0803.shtml

ostrata

Mensajes: 1355
Registrado: Mié 24 Mar, 2010 17:29

Re: La cabina (Antonio Mercero, 1972) DVDRip

Mensajepor ostrata » Jue 17 May, 2018 23:05

Gracias. :)

Saludos.


Volver a “Televisión”

¿Quién está conectado?

Usuarios navegando por este Foro: No hay usuarios registrados visitando el Foro y 2 invitados