Death Line (Gary Sherman, 1972) HD 1080p Dual SE

Publica y encuentra enlaces p2p de filmes hasta 1980 en esta sección.
Avatar de Usuario
danielico

Mensajes: 28
Registrado: Lun 20 Jun, 2011 23:52

Death Line (Gary Sherman, 1972) HD 1080p Dual SE

Mensajepor danielico » Vie 11 May, 2018 13:29

DEATH LINE (Sub-Humanos, 1972)

Imagen


FICHA DE LA PELÍCULA

País: Gran Bretaña
Año: 1972
Director: Gary Sherman
Guión: Ceri Jones y Gary Sherman (historia)
Producción: Paul Maslansky (Harbor Ventures / K-L Productions)
Fotografía: Alex Thomson
Música: Will Malone, Jeremy Rose

Reparto: Donald Pleasence, Norman Rossington, Christopher Lee, David Ladd, Sharon Gurney, Hugh Armstrong, June Turner, Clive Swift, James Cossins, Heather Stoney, Hugh Dickson, Jack Woolgar, Ron Pember

Sinopsis: En los subterráneos de Londres se suceden numerosas desapariciones. Una pareja y un detective de policía descubren que allí habita una sociedad caníbal.

Comentario: Film del director Gary Sherman (Muertos y enterrados, 1981), (Poltergeist III, 1988) que cuenta la historia de unos seres deformes y caníbales que inexplicablemente viven bajo el metro de Londres. Una joven pareja será testigo de un extraño episodio que advertirá a las autoridades correspondientes. Las investigaciones policiales lideradas por el jefe inspector de la policía (Donald Pleasence) y su grupo de colaboradores intentarán resolver el misterioso caso de los caníbales londinenses. La verdad es que el título, aunque sea una película nada desdeñable, promete más de lo que ofrece, quizás debido a una floja elaboración en el desarrollo del guión y a que, probablemente, su excesiva lentitud en algunos tramos del metraje le reste interés por momentos. Lo mejor sin duda, el metro de Londres y como no, las actuaciones de Donald Pleasence y una pequeña aparición del mítico Christopher Lee. En cualquier caso, la película merece un visionado, máxime cuando se presenta en esta versión extraída del BluRay, en alta calidad y con el doblaje original de 1988 (Luis Posada Mendoza, Francisco Garriga o Rosa María Hernández), además del audio inglés y subtítulos en español y en inglés.

Ficha en Internet Movie Database


DATOS TÉCNICOS:

VIDEO: V_MPEG2 (MPEG-2 Video)
AUDIO: AAC / AC-3 224/ 192 Kb Dual Español-Inglés.
RESOLUCIÓN: 1920x1036
PROPORCIÓN: 1.85:1
FRAMES: 23.976 fps
DURACIÓN: 01:27:26
PESO: 1.78gb
SUBTÍTULOS: Se incluyen en castellano y en inglés.


Spoiler: mostrar

Código: Seleccionar todo

General
Unique ID                                : 195148118241587764330923398514815118795 (0x92D0291354EF3DA7891FC350CD15ADCB)
Complete name                            : D:\Users\Daniel\Desktop\Emule\Incoming\Death Line [Sub-Humanos, 1972] HDRip 1080p Dual Spanish.English+Subs Spa&Eng.mkv
Format                                   : Matroska
Format version                           : Version 4 / Version 2
File size                                : 1.78 GiB
Duration                                 : 1 h 27 min
Overall bit rate                         : 2 915 kb/s
Encoded date                             : UTC 2018-05-11 08:36:03
Writing application                      : mkvmerge v7.0.0 ('Where We Going') 32bit built on Jun  9 2014 15:08:34
Writing library                          : libebml v1.3.0 + libmatroska v1.4.1

Video
ID                                       : 1
Format                                   : AVC
Format/Info                              : Advanced Video Codec
Format profile                           : High@L4.1
Format settings, CABAC                   : Yes
Format settings, ReFrames                : 4 frames
Codec ID                                 : V_MPEG4/ISO/AVC
Duration                                 : 1 h 27 min
Bit rate                                 : 2 500 kb/s
Width                                    : 1 920 pixels
Height                                   : 1 036 pixels
Display aspect ratio                     : 1.85:1
Frame rate mode                          : Constant
Frame rate                               : 23.976 (24000/1001) FPS
Original frame rate                      : 23.976 (23976/1000) FPS
Color space                              : YUV
Chroma subsampling                       : 4:2:0
Bit depth                                : 8 bits
Scan type                                : Progressive
Bits/(Pixel*Frame)                       : 0.052
Stream size                              : 1.53 GiB (86%)
Writing library                          : x264 core 148 r2638M 7599210
Encoding settings                        : cabac=1 / ref=4 / deblock=1:-1:-1 / analyse=0x3:0x113 / me=umh / subme=9 / psy=1 / psy_rd=1.00:0.15 / mixed_ref=1 / me_range=24 / chroma_me=1 / trellis=2 / 8x8dct=1 / cqm=0 / deadzone=21,11 / fast_pskip=1 / chroma_qp_offset=-3 / threads=32 / lookahead_threads=4 / sliced_threads=0 / nr=0 / decimate=1 / interlaced=0 / bluray_compat=0 / constrained_intra=0 / bframes=3 / b_pyramid=2 / b_adapt=2 / b_bias=0 / direct=3 / weightb=1 / open_gop=0 / weightp=2 / keyint=250 / keyint_min=25 / scenecut=40 / intra_refresh=0 / rc_lookahead=50 / rc=2pass / mbtree=1 / bitrate=2500 / ratetol=1.0 / qcomp=0.60 / qpmin=0 / qpmax=69 / qpstep=4 / cplxblur=20.0 / qblur=0.5 / vbv_maxrate=31250 / vbv_bufsize=31250 / nal_hrd=none / filler=0 / ip_ratio=1.40 / aq=3:1.00
Default                                  : Yes
Forced                                   : No

Audio #1
ID                                       : 2
Format                                   : AAC
Format/Info                              : Advanced Audio Codec
Format profile                           : LC
Codec ID                                 : A_AAC
Duration                                 : 1 h 27 min
Bit rate                                 : 224 kb/s
Channel(s)                               : 2 channels
Channel positions                        : Front: L R
Sampling rate                            : 48.0 kHz
Frame rate                               : 46.875 FPS (1024 spf)
Compression mode                         : Lossy
Stream size                              : 140 MiB (8%)
Language                                 : English
Default                                  : No
Forced                                   : No

Audio #2
ID                                       : 3
Format                                   : AC-3
Format/Info                              : Audio Coding 3
Mode extension                           : CM (complete main)
Format settings, Endianness              : Big
Codec ID                                 : A_AC3
Duration                                 : 1 h 27 min
Bit rate mode                            : Constant
Bit rate                                 : 192 kb/s
Channel(s)                               : 2 channels
Channel positions                        : Front: L R
Sampling rate                            : 44.1 kHz
Frame rate                               : 28.711 FPS (1536 spf)
Bit depth                                : 16 bits
Compression mode                         : Lossy
Delay relative to video                  : 1 s 300 ms
Stream size                              : 120 MiB (7%)
Language                                 : Spanish
Default                                  : Yes
Forced                                   : Yes

Text #1
ID                                       : 4
Format                                   : UTF-8
Codec ID                                 : S_TEXT/UTF8
Codec ID/Info                            : UTF-8 Plain Text
Duration                                 : 1 h 25 min
Bit rate                                 : 39 b/s
Count of elements                        : 648
Stream size                              : 24.8 KiB (0%)
Default                                  : Yes
Forced                                   : No

Text #2
ID                                       : 5
Format                                   : UTF-8
Codec ID                                 : S_TEXT/UTF8
Codec ID/Info                            : UTF-8 Plain Text
Duration                                 : 1 h 21 min
Bit rate                                 : 44 b/s
Count of elements                        : 894
Stream size                              : 26.2 KiB (0%)
Default                                  : No
Forced                                   : No


CAPTURAS DEL RIPEO:

Imagen
Imagen
Imagen
Imagen
Imagen
Imagen


ENLACE:

Death Line [Sub-Humanos, 1972] HDRip 1080p Dual Spanish.English+Subs Spa&Eng.mkv [1.78 Gb] [Info]
"Y todo irá bien
y toda clase de cosas saldrá bien
cuando las lenguas de la llama se enlacen
en el nudo de fuego coronado
y fuego y rosa sean una"

T.S. ELIOT

Avatar de Usuario
duegno

Mensajes: 242
Registrado: Dom 28 Ago, 2011 13:28

Re: Death Line (Gary Sherman, 1972) HD 1080p Dual SE

Mensajepor duegno » Vie 11 May, 2018 15:11

Gracias. Para echar el rato vienen bien estas pelis.

Avatar de Usuario
janca

Mensajes: 1975
Registrado: Dom 20 Dic, 2009 09:31

Re: Death Line (Gary Sherman, 1972) HD 1080p Dual SE

Mensajepor janca » Vie 11 May, 2018 16:24

Muchas gracias Danielico

Avatar de Usuario
xantillana

Mensajes: 266
Registrado: Vie 18 May, 2007 09:26

Re: Death Line (Gary Sherman, 1972) HD 1080p Dual SE

Mensajepor xantillana » Sab 12 May, 2018 09:44

Estupenda aportación. Muchas gracias, Danielico.
Todo por el cine

scottieferguson

Mensajes: 25
Registrado: Mié 26 Nov, 2014 10:16

Re: Death Line (Gary Sherman, 1972) HD 1080p Dual SE

Mensajepor scottieferguson » Sab 12 May, 2018 21:59

Uno de los grandes clásicos del fantástico británico. Una obra a recuperar. Si no la habéis visto, será toda una sorpresa (agradable).

teoremista

Mensajes: 340
Registrado: Vie 18 May, 2007 10:56

Re: Death Line (Gary Sherman, 1972) HD 1080p Dual SE

Mensajepor teoremista » Dom 13 May, 2018 22:29

Gracias!!!

deh57h

Mensajes: 30
Registrado: Vie 19 Nov, 2010 13:19

Re: Death Line (Gary Sherman, 1972) HD 1080p Dual SE

Mensajepor deh57h » Lun 14 May, 2018 21:13

Descarga muy lentamente, gracias.

Avatar de Usuario
danielico

Mensajes: 28
Registrado: Lun 20 Jun, 2011 23:52

Re: Death Line (Gary Sherman, 1972) HD 1080p Dual SE

Mensajepor danielico » Mar 15 May, 2018 20:46

deh57h escribió:Descarga muy lentamente, gracias.


Hago lo que puedo. Tengo el Emule echando humo y la película en lanzamiento. Un poco de paciencia y, en cuanto se complete otra fuente más, irá mucho mejor. Un abrazo :)
"Y todo irá bien
y toda clase de cosas saldrá bien
cuando las lenguas de la llama se enlacen
en el nudo de fuego coronado
y fuego y rosa sean una"

T.S. ELIOT

Avatar de Usuario
ChicoSalami

Mensajes: 358
Registrado: Vie 15 Jul, 2005 02:00
Ubicación: Junto a la vía del tren

Re: Death Line (Gary Sherman, 1972) HD 1080p Dual SE

Mensajepor ChicoSalami » Mar 15 May, 2018 22:47

Muchas gracias!!


Volver a “Cine Clásico”

¿Quién está conectado?

Usuarios navegando por este Foro: No hay usuarios registrados visitando el Foro y 3 invitados