Las tres espadas del Zorro (Ricardo Blasco, 1963) SATRip VE

Publica y encuentra enlaces p2p de filmes hasta 1980 en esta sección.
DCINE

Mensajes: 260
Registrado: Mar 20 Dic, 2016 15:02

Las tres espadas del Zorro (Ricardo Blasco, 1963) SATRip VE

Mensajepor DCINE » Jue 10 May, 2018 10:05

Las tres espadas del Zorro (Le tre spade di Zorro)
1963

Imagen



DIRECTOR: Ricardo Blasco
PRODUCTORA: Coproducción España-Italia; Hispamer Films / Rodes Cinematografica
GUIÓN: Mario Amendola, José Gallardo, Luis Lucas Ojeda, Daniel Ribera
MÚSICA: Antonio Ramírez Ángel
FOTOGRAFÍA: Julio Ortas



ARGUMENTO 1830, la independencia de México está reciente. Aprovechándose de este momento, algunos gobernadores de provincias alejadas de la capital, burlan el poder central, reinando en su feudo como señores de vidas y haciendas. Contra este estado de cosas se alzan algunos hombres que van a forjar con su valor, los cimientos de Nuevo México. El nombre de uno de ellos pronto se hace popular en Baja California: El Zorro. El gobernador D. Manuel de Paredes, señor de horca y cuchillo, no pudiendo apresarlo decide vengarse en la mujer y el hijo del Zorro, iniciando así, una era de luchas y venganzas que va a ensangrentar, durante mucho tiempo, las tierras de aquella provincia. (FILMAFFINITY) IMDB: https://www.imdb.com/title/tt0057602/

Doblaje Cines 1963: www.eldoblaje.com/datos/FichaPelicula.asp?id=45246

Reparto: Guy Stockwell, Gloria Milland, Mikaela, Antonio Prieto, Giuseppe Addobbati, Franco Fantasia, Julio Cesar Sempere, Juan Luis Galiardo, Guillermo Vera, Alfonso Rojas, Manrico Melchiorre, Santiago Rivero, Anna Petocchi, Luis Marín, Pilar Gómez Ferrer

Imagen

Datos Técnicos:


Código: Seleccionar todo

General:

Complete name                    : 1963 Las tres espadas del Zorro (Le tre spade di Zorro) (Ricardo Blasco, 1963) SATRip VE (Doblaje Cines 1963) Subt ESP RTVE by DCINE.mkv
Format                           : Matroska
Format version                   : Version 4 / Version 2
File size                        : 1.49 GiB
Duration                         : 1h 25mn
Overall bit rate                 : 2 479 Kbps
Movie name                       : 1963 Las tres espadas del Zorro/Le tre spade di Zorro (Ricardo Blasco, 1963) SATRip VE (Doblaje Cines 1963) Subt ESP RTVE by DCINE.mkv
Encoded date                     : UTC 2018-04-30T21:39:09Z
Writing application              : mkvmerge v7.1.0 ('Good Love') 32bit built on Jul 27 2014 12:59:18
Writing library                  : Lavf54.63.104
DURATION                         : 01:24:28.760000000
NUMBER_OF_FRAMES                 : 1190
NUMBER_OF_BYTES                  : 67296
_STATISTICS_WRITING_APP          : mkvmerge v7.1.0 ('Good Love') 32bit built on Jul 27 2014 12:59:18
_STATISTICS_WRITING_DATE_UTC     : 2018-05-01 20:30:21
_STATISTICS_TAGS                 : BPS DURATION NUMBER_OF_FRAMES NUMBER_OF_BYTES

Video
ID                               : 1
Format                           : AVC
Format/Info                      : Advanced Video Codec
Format profile                   : High@L4.1
Format settings, CABAC           : Yes
Format settings, ReFrames        : 4 frames
Codec ID                         : V_MPEG4/ISO/AVC
Duration                         : 1h 25mn
Bit rate                         : 2 237 Kbps
Width                            : 718 pixels
Height                           : 570 pixels
Display aspect ratio             : 16:9
Original display aspect ratio    : 16:9
Frame rate mode                  : Variable
Frame rate                       : 25.000 fps
Color space                      : YUV
Chroma subsampling               : 4:2:0
Bit depth                        : 8 bits
Scan type                        : Progressive
Bits/(Pixel*Frame)               : 0.219
Stream size                      : 1.34 GiB (90%)
Writing library                  : x264 core 142 r2479 dd79a61
Encoding settings                : cabac=1 / ref=3 / deblock=1:0:0 / analyse=0x3:0x113 / me=hex / subme=7 / psy=1 / psy_rd=1.00:0.00 / mixed_ref=1 / me_range=16 / chroma_me=1 / trellis=1 / 8x8dct=1 / cqm=0 / deadzone=21,11 / fast_pskip=1 / chroma_qp_offset=-2 / threads=1 / lookahead_threads=1 / sliced_threads=0 / nr=0 / decimate=1 / interlaced=0 / bluray_compat=0 / constrained_intra=0 / bframes=3 / b_pyramid=2 / b_adapt=1 / b_bias=0 / direct=1 / weightb=1 / open_gop=0 / weightp=2 / keyint=250 / keyint_min=25 / scenecut=40 / intra_refresh=0 / rc_lookahead=40 / rc=crf / mbtree=1 / crf=20.0 / qcomp=0.60 / qpmin=0 / qpmax=69 / qpstep=4 / vbv_maxrate=62500 / vbv_bufsize=78125 / crf_max=0.0 / nal_hrd=none / filler=0 / ip_ratio=1.40 / aq=1:1.00
Default                          : Yes
Forced                           : No
DURATION                         : 01:25:54.240000000
NUMBER_OF_FRAMES                 : 128856
NUMBER_OF_BYTES                  : 1471994255
_STATISTICS_WRITING_APP          : mkvmerge v7.1.0 ('Good Love') 32bit built on Jul 27 2014 12:59:18
_STATISTICS_WRITING_DATE_UTC     : 2018-05-01 20:30:21
_STATISTICS_TAGS                 : BPS DURATION NUMBER_OF_FRAMES NUMBER_OF_BYTES
Color primaries                  : BT.470-6 System B, BT.470-6 System G, BT.601-6 625, BT.1358 625, BT.1700 625 PAL, BT.1700 625 SECAM
Transfer characteristics         : BT.709-5, BT.1361
Matrix coefficients              : BT.601-6 525, BT.1358 525, BT.1700 NTSC, SMPTE 170M

Audio
ID                               : 2
Format                           : MPEG Audio
Format version                   : Version 1
Format profile                   : Layer 2
Codec ID                         : A_MPEG/L2
Codec ID/Hint                    : MP2
Duration                         : 1h 25mn
Bit rate mode                    : Constant
Bit rate                         : 192 Kbps
Channel(s)                       : 2 channels
Sampling rate                    : 48.0 KHz
Compression mode                 : Lossy
Delay relative to video          : -78ms
Stream size                      : 118 MiB (8%)
Title                            : Doblaje Cines 1963
Language                         : Spanish
Default                          : Yes
Forced                           : No
DURATION                         : 01:25:54.360000000
NUMBER_OF_FRAMES                 : 214761
NUMBER_OF_BYTES                  : 123702336
_STATISTICS_WRITING_APP          : mkvmerge v7.1.0 ('Good Love') 32bit built on Jul 27 2014 12:59:18
_STATISTICS_WRITING_DATE_UTC     : 2018-05-01 20:30:21
_STATISTICS_TAGS                 : BPS DURATION NUMBER_OF_FRAMES NUMBER_OF_BYTES

Text
ID                               : 3
Format                           : UTF-8
Codec ID                         : S_TEXT/UTF8
Codec ID/Info                    : UTF-8 Plain Text
Title                            : Completos para sordos
Language                         : Spanish
Default                          : No
Forced                           : No







Capturas:

ImagenImagen
ImagenImagen
ImagenImagen
ImagenImagen
ImagenImagen

Enlace:

1963 Las tres espadas del Zorro (Le tre spade di Zorro) (Ricardo Blasco, 1963) SATRip VE (Doblaje Cines 1963) Subt ESP RTVE by DCINE.mkv [1.49 Gb] [Info]

DD: https://mega.nz/#!p9ZkgCzb!ZTf8LzZCspoT ... 15-Fwge0-0

Volver a “Cine Clásico”

¿Quién está conectado?

Usuarios navegando por este Foro: Yahoo [Bot] y 1 invitado