Bury me Dead (Bernard Vorhaus, 1947) DVDRip VOSE

Publica y encuentra enlaces p2p de filmes hasta 1980 en esta sección.
Avatar de Usuario
hammett

Mensajes: 396
Registrado: Vie 10 Oct, 2008 09:04

Bury me Dead (Bernard Vorhaus, 1947) DVDRip VOSE

Mensajepor hammett » Lun 02 Oct, 2017 10:45

gullcottage en Cinemageddon



Imagen

Bury Me Dead (1947)
Bury Me Dead

País: EE.UU.
Duración: 68 minutos
B/N

Director: Bernard Vorhaus
Guión: Dwight V. Babcock, Karen DeWolf, Irene Winston
Productor: Charles Reisner, Benjamin Stoloff
Director de fotografía: John Alton
Música: Emil Cadkin

Más información

Reparto: Cathy O'Donnell, June Lockhart, Hugh Beaumont, Mark Daniels, Greg McClure, Milton Parsons, Virginia Farmer, Sonia Darrin, Cliff Clark, John Dehner, Sumner Getchell, Selmer Jackson, Cy Kendall, Charles Lane, Jack Perry, Brick Sullivan

Sinopsis y comentarios: Barbara Carlin asiste a su propio funeral y regresa a casa sospechando que su marido, Rod Carlin, había tratado de acabar con ella. También tiene curiosidad por saber quién es la mujer enterrada bajo su nombre. (FILMAFFINITY)

NO TODOS LOS AUTORES QUE SUFRIERON LA IGNOMINIOSA CAZA DE BRUJAS FUERON GENTE DEL RENOMBRE DE UNOS JULES DASSIN, EDWARD DMYTRIK, JOSEPH LOSEY, ETC... TAMBIÉN HUBO GENTE QUE ERAN SIMPLES ARTESANOS DE PEQUEÑAS PELÍCULAS DE SERIE B Y CUYA CARRERA NUNCA ENCABEZARÍA NINGUNA LISTA. UNO DE ELLOS FUE BERNARD VORHAUS, UN DIRECTOR CUYA PELÍCULA MÁS RECORDADA QUIZÁS SEA THREE FACES WEST (1940) CON JOHN WAYNE COMO PROTAGONISTA. SU CARRERA SE VIO TRUNCADA AL INICIO DE LA DÉCADA DE LOS 50, MOMENTO EN EL QUE APROVECHANDO QUE FILMABA UNA PELÍCULA EN ITALIA, Y EVITANDO UNA CITACIÓN DEL COMITÉ DE ACTIVIDADES ANTICOMUNISTAS, SE INSTALÓ EN INGLATERRA JUNTO A SU ESPOSA Y YA NUNCA MÁSREGRESARÍA A LOS USA NI DIRIGIRÍA PELÍCULA ALGUNA. HOY OS TRAEMOS UNA DE SUS ÚLTIMAS PELÍCULAS, UNA CINTA QUE BASA SUS BAZAS EN AVERIGUAR QUIÉN ES EL CULPABLE ENTRE UN GRUPO DE CINCO PERSONAJES. FOTOGRAFÍA DEL GRAN JOHN ALTON QUE NO SE PUEDE DISFRUTAR DEL TODO DEBIDO A LA CALIDAD DE LA COPIA Y LOS SUBTÍTULOS EN CASTELLANO.

Capturas:

Imagen

Imagen

Imagen

Imagen


Datos técnicos:
Spoiler: mostrar

Código: Seleccionar todo

General
Complete name                    : Bury.Me.Dead\Bury.Me.Dead.1947.LiMiTED.DVDRip.XviD-LiNE.avi
Format                           : AVI
Format/Info                      : Audio Video Interleave
File size                        : 697 MiB
Duration                         : 1h 8mn
Overall bit rate                 : 1 421 Kbps
Writing application              : Nandub v1.0rc2
Writing library                  : Nandub build 1852/release

Video
Format                           : MPEG-4 Visual
Format profile                   : Streaming Video@L1
Format settings, BVOP            : Yes
Format settings, QPel            : Yes
Format settings, GMC             : No warppoints
Format settings, Matrix          : Default (H.263)
Muxing mode                      : Packed bitstream
Codec ID                         : XVID
Codec ID/Hint                    : XviD
Duration                         : 1h 8mn
Bit rate                         : 1 323 Kbps
Width                            : 640 pixels
Height                           : 480 pixels
Display aspect ratio             : 4/3
Frame rate                       : 23.976 fps
Resolution                       : 24 bits
Colorimetry                      : 4:2:0
Scan type                        : Progressive
Bits/(Pixel*Frame)               : 0.180
Stream size                      : 649 MiB (93%)
Writing library                  : XviD 1.0.3 (UTC 2004-12-20)

Audio
Format                           : MPEG Audio
Format version                   : Version 1
Format profile                   : Layer 3
Codec ID                         : 55
Codec ID/Hint                    : MP3
Duration                         : 1h 8mn
Bit rate mode                    : Variable
Bit rate                         : 86.2 Kbps
Channel(s)                       : 1 channel
Sampling rate                    : 48.0 KHz
Resolution                       : 16 bits
Stream size                      : 42.3 MiB (6%)
Alignment                        : Aligned on interleaves
Interleave, duration             : 24 ms (0.58 video frame)
Interleave, preload duration     : 476 ms



Elinks:

Bury.Me.Dead.1947.LiMiTED.DVDRip.XviD-LiNE.avi [697.16 Mb] [Info]

Subtítulos castellanos en descarga directa: http://www.subdivx.com/X6XNDc5NzM3X-bur ... -1947.html
"La vida es en color, pero el blanco y negro es más realista"

Avatar de Usuario
paizoco

Mensajes: 2276
Registrado: Vie 21 Nov, 2003 01:00
Ubicación: Far West

Re: Bury me Dead (Bernard Vorhaus, 1947) DVDRip VOSE

Mensajepor paizoco » Mié 16 May, 2018 16:46

Me apunto ahora, muchas gracias hammett


Volver a “Cine Clásico”

¿Quién está conectado?

Usuarios navegando por este Foro: pcero y 0 invitados