711 Ocean Drive (Joseph M. Newman, 1950) HD 720p VOSE

Publica y encuentra enlaces p2p de filmes hasta 1980 en esta sección.
Avatar de Usuario
DMMD

Mensajes: 1560
Registrado: Lun 27 Feb, 2012 14:16

711 Ocean Drive (Joseph M. Newman, 1950) HD 720p VOSE

Mensajepor DMMD » Sab 11 Feb, 2017 01:19

Imagen


Imagen


Al filo de la vida


Título original
711 Ocean Drive

Año
1950

Duración
102 min.

País Imagen
Director
Joseph M. Newman

Guion
Richard English, Francis Swann

Música
Sol Kaplan

Fotografía
Franz Planer (B&W)

Reparto
Edmond O'Brien, Joanne Dru, Otto Kruger, Barry Kelley, Dorothy Patrick, Don Porter, Howard St. John, Robert Osterloh, Sammy White

Productora
Frank Seltzer Productions

Género
Cine negro. Drama | Crimen. Mafia. Juego. Policíaco

Sinopsis
Un operador de teléfonos de Los Ángeles utiliza sus conocimientos en electrónica para ayudar a un apostador en sus operaciones. Cuando el apostador es asesinado, decide tomar el mando del negocio. Los gánster de la Costa Este intentarán coger una parte del pastel. (FILMAFFINITY)


Encode vs Dvd (Ntsc)

Imagen
Imagen

Código: Seleccionar todo

General
Unique ID                                : 221162812318928060063169637431341984132 (0xA66268853BF135308819162582DBA984)
Complete name                            : C:\Program Files (x86)\eMule\Incoming\1950-711.Ocean.Drive.WEBRip.720p.AC3[DMMD].mkv
Format                                   : Matroska
Format version                           : Version 4 / Version 2
File size                                : 3.56 GiB
Duration                                 : 1 h 41 min
Overall bit rate                         : 5 009 kb/s
Movie name                               : 1950-711.Ocean.Drive.WEBRip.720p.AC3[DMMD]
Encoded date                             : UTC 2017-02-11 00:00:21
Writing application                      : mkvmerge v9.7.0 ('Numbers') 64bit
Writing library                          : libebml v1.3.4 + libmatroska v1.4.5
Attachments                              : 1

Video
ID                                       : 1
Format                                   : AVC
Format/Info                              : Advanced Video Codec
Format profile                           : High@L4.1
Format settings, CABAC                   : Yes
Format settings, ReFrames                : 12 frames
Codec ID                                 : V_MPEG4/ISO/AVC
Duration                                 : 1 h 41 min
Bit rate                                 : 4 783 kb/s
Width                                    : 948 pixels
Height                                   : 720 pixels
Display aspect ratio                     : 4:3
Frame rate mode                          : Constant
Frame rate                               : 23.976 FPS
Color space                              : YUV
Chroma subsampling                       : 4:2:0
Bit depth                                : 8 bits
Scan type                                : Progressive
Bits/(Pixel*Frame)                       : 0.292
Stream size                              : 3.40 GiB (95%)
Writing library                          : x264 core 148 r2638kMod 7599210
Encoding settings                        : cabac=1 / ref=12 / deblock=1:-3:-3 / analyse=0x3:0x133 / me=umh / subme=11 / psy=1 / fade_compensate=0.00 / psy_rd=1.00:0.00 / mixed_ref=1 / me_range=32 / chroma_me=1 / trellis=2 / 8x8dct=1 / cqm=0 / deadzone=21,11 / fast_pskip=0 / chroma_qp_offset=-2 / threads=6 / lookahead_threads=1 / sliced_threads=0 / nr=0 / decimate=0 / interlaced=0 / bluray_compat=0 / constrained_intra=0 / fgo=0 / bframes=11 / b_pyramid=2 / b_adapt=2 / b_bias=0 / direct=3 / weightb=1 / open_gop=0 / weightp=2 / keyint=250 / keyint_min=23 / scenecut=40 / intra_refresh=0 / rc=crf / mbtree=0 / crf=19.2000 / qcomp=0.60 / qpmin=0 / qpmax=69 / qpstep=4 / ip_ratio=1.40 / pb_ratio=1.30 / aq=1:0.50
Language                                 : English
Default                                  : Yes
Forced                                   : No

Audio
ID                                       : 2
Format                                   : AC-3
Format/Info                              : Audio Coding 3
Mode extension                           : CM (complete main)
Format settings, Endianness              : Big
Codec ID                                 : A_AC3
Duration                                 : 1 h 41 min
Bit rate mode                            : Constant
Bit rate                                 : 224 kb/s
Channel(s)                               : 2 channels
Channel positions                        : Front: L R
Sampling rate                            : 48.0 kHz
Frame rate                               : 31.250 FPS (1536 spf)
Bit depth                                : 16 bits
Compression mode                         : Lossy
Stream size                              : 163 MiB (4%)
Language                                 : English
Default                                  : Yes
Forced                                   : No

Text #1
ID                                       : 3
Format                                   : UTF-8
Codec ID                                 : S_TEXT/UTF8
Codec ID/Info                            : UTF-8 Plain Text
Duration                                 : 1 h 41 min
Bit rate                                 : 97 b/s
Count of elements                        : 1806
Stream size                              : 72.3 KiB (0%)
Language                                 : Spanish
Default                                  : Yes
Forced                                   : No

Text #2
ID                                       : 4
Format                                   : UTF-8
Codec ID                                 : S_TEXT/UTF8
Codec ID/Info                            : UTF-8 Plain Text
Duration                                 : 1 h 39 min
Bit rate                                 : 93 b/s
Count of elements                        : 2008
Stream size                              : 68.5 KiB (0%)
Language                                 : English
Default                                  : No
Forced                                   : No

Text #3
ID                                       : 5
Format                                   : UTF-8
Codec ID                                 : S_TEXT/UTF8
Codec ID/Info                            : UTF-8 Plain Text
Duration                                 : 1 h 39 min
Bit rate                                 : 95 b/s
Count of elements                        : 2054
Stream size                              : 69.5 KiB (0%)
Title                                    : SDH
Language                                 : English
Default                                  : No
Forced                                   : No

Menu
00:00:00.000                             : en:00:00:00.000
00:06:39.081                             : en:00:06:39.081
00:14:04.000                             : en:00:14:04.000
00:20:36.275                             : en:00:20:36.275
00:28:10.062                             : en:00:28:10.062
00:35:37.006                             : en:00:35:37.006
00:43:32.975                             : en:00:43:32.975
00:49:55.591                             : en:00:49:55.591
00:58:58.222                             : en:00:58:58.222
01:04:48.055                             : en:01:04:48.055
01:09:45.296                             : en:01:09:45.296
01:17:36.500                             : en:01:17:36.500
01:23:54.063                             : en:01:23:54.063
01:27:26.072                             : en:01:27:26.072
01:32:37.024                             : en:01:32:37.024
01:36:18.124                             : en:01:36:18.124





Agradecimiento especial a la gente de noirestyle por currarse los sub. en castellano.


CAPTURAS

Imagen
Imagen
Imagen
Imagen
Imagen
Imagen
Imagen
Imagen



Enlaces de descarga

Imagen


1950-711.Ocean.Drive.WEBRip.720p.AC3[DMMD].mkv [3.56 Gb] [Info]

Avatar de Usuario
paizoco

Mensajes: 2276
Registrado: Vie 21 Nov, 2003 01:00
Ubicación: Far West

Re: 711 Ocean Drive (Joseph M. Newman, 1950) HD 720p VOSE

Mensajepor paizoco » Sab 11 Feb, 2017 02:33

Me apunto, muchas gracias una vez más DMMD

Avatar de Usuario
janca

Mensajes: 1932
Registrado: Dom 20 Dic, 2009 09:31

Re: 711 Ocean Drive (Joseph M. Newman, 1950) HD 720p VOSE

Mensajepor janca » Sab 11 Feb, 2017 06:38

Muchas gracias DMMD

Avatar de Usuario
miguel_HammerFilms

Mensajes: 1205
Registrado: Vie 18 May, 2007 11:23

Re: 711 Ocean Drive (Joseph M. Newman, 1950) HD 720p VOSE

Mensajepor miguel_HammerFilms » Sab 11 Feb, 2017 08:03

Muchas gracias DMMD :plas: :plas:
Imagen

Avatar de Usuario
Spanish Jhonny

Mensajes: 2146
Registrado: Mar 18 Sep, 2012 16:01

Re: 711 Ocean Drive (Joseph M. Newman, 1950) HD 720p VOSE

Mensajepor Spanish Jhonny » Sab 11 Feb, 2017 09:14

Pinchop
:plas: :plas: :plas: :plas:

griffin

Mensajes: 177
Registrado: Dom 26 Jul, 2015 01:27

Re: 711 Ocean Drive (Joseph M. Newman, 1950) HD 720p VOSE

Mensajepor griffin » Sab 11 Feb, 2017 17:02

Me apunto, ¡gracias!

ostrata

Mensajes: 1312
Registrado: Mié 24 Mar, 2010 17:29

Re: 711 Ocean Drive (Joseph M. Newman, 1950) HD 720p VOSE

Mensajepor ostrata » Dom 12 Feb, 2017 19:15

Gracias. :)

Saludos.

jamescagney

Mensajes: 101
Registrado: Dom 02 Dic, 2012 15:59

Re: 711 Ocean Drive (Joseph M. Newman, 1950) HD 720p VOSE

Mensajepor jamescagney » Vie 11 May, 2018 20:49

Mil gracias DMMD. La pena es que la he puesto y no tiene fuentes, si alguien me hecha una mano le estaría muy agradecido.

joramor

Mensajes: 1292
Registrado: Vie 05 Nov, 2010 19:55

Re: 711 Ocean Drive (Joseph M. Newman, 1950) HD 720p VOSE

Mensajepor joramor » Sab 12 May, 2018 06:03

Muchas gracias DMMD

jamescagney

Mensajes: 101
Registrado: Dom 02 Dic, 2012 15:59

Re: 711 Ocean Drive (Joseph M. Newman, 1950) HD 720p VOSE

Mensajepor jamescagney » Mar 15 May, 2018 19:34

Completada. Muchas gracias a quien ayudó a descargarla.

maimes

Mensajes: 191
Registrado: Mié 20 Abr, 2011 13:03

Re: 711 Ocean Drive (Joseph M. Newman, 1950) HD 720p VOSE

Mensajepor maimes » Jue 17 May, 2018 17:55

Muchas gracias DMMD, me apunto ahora, pues en su momento se me pasó por alto. Renuevo sin duda, Gracias y saludos.

Avatar de Usuario
Dardo
Arrow Thrower Clown

Mensajes: 15641
Registrado: Dom 19 Oct, 2003 02:00
Ubicación: Entre Encinas y Dolomías

Re: 711 Ocean Drive (Joseph M. Newman, 1950) HD 720p VOSE

Mensajepor Dardo » Jue 17 May, 2018 21:37

Upsss se me había pasado en su momento.

Ya estoy con ella.

Grande único e Imperial DMMD :sonrisa:

elmajete

Mensajes: 869
Registrado: Vie 18 May, 2007 22:05

Re: 711 Ocean Drive (Joseph M. Newman, 1950) HD 720p VOSE

Mensajepor elmajete » Lun 21 May, 2018 10:45

Muchas gracias DMMD :plas: :plas: :plas:


Volver a “Cine Clásico”

¿Quién está conectado?

Usuarios navegando por este Foro: No hay usuarios registrados visitando el Foro y 2 invitados