Nunca hables con desconocidos (Robert Michael Lewis, 1994) DVDRip Dual

Aquí tienen cabida todas aquellas series, programas, anuncios, etc. que tragamos durante tantos años, cuando no existía Internet y ni siquiera podíamos elegir.
Avatar de Usuario
SitherKiller

Mensajes: 325
Registrado: Lun 23 Ene, 2012 17:24
Ubicación: 404 Not Found

Nunca hables con desconocidos (Robert Michael Lewis, 1994) DVDRip Dual

Mensajepor SitherKiller » Sab 13 Ago, 2016 16:26

PUBLICADO ORIGINALMENTE EN TERRORFANTASTICO.COM

NUNCA HABLES CON DESCONOCIDOS (DUAL + SUBTÍTULOS) (1994)

Imagen



FICHA DE LA PELÍCULA

TITULO ORIGINAL: Don't talk to strangers
AÑO DE PRODUCCIÓN: 1994
NACIONALIDAD: Estados Unidos
DIRECTOR: Robert Michael Lewis
REPARTO: Pierce Brosnan, Shanna Reed, Terry O'Quinn, Keegan MacIntosh, Michael MacRae, Roger R. Cross, Alan Robertson, Ken Roberts y Douglas Stewart
SIPNOSIS: Jane (Shanna Reed) está siendo atormentada por su ex marido Bonner (Terry O’Quinn), un detective que está exasperado por haber perdido la custodia compartida del hijo de ambos, Eric de ocho años. Mientras tramitan el divorcio, el acoso de Bonner se agudiza tanto que Jane y su nueva pareja Patrick (Pierce Brosnan) deciden dejar la ciudad para irse a California a comenzar una nueva vida, llevándose a Eric. Más enfurecido aún, Bonner los persigue. (FILMAFFINITY)

Imagen


DATOS DEL RIPEO

FUENTE: DVD PAL.

La fuente del vídeo proviene del único DVD comercializado que hay, el cual proviene de Reino Unido. La película nunca se ha editado en España en DVD. Solamente en VHS por Universal. De esta cinta proviene el audio en castellano cedido por el usuario jabpc de TERRORFANTASTICO / HISPACINE. Agradecimientos para él.

VIDEO: H264 MP4 AVC
AUDIO: AC3 192kb Estéreo Castellano, AC3 192kb Estéreo Inglés
RESOLUCIÓN: 720x540
PROPORCIÓN: 1.33:1 (4/3)
FRAMES: 25.00 fps
DURACIÓN: 01:29:20
PESO: 1.57gb
SUBTÍTULOS: No se incluyen.

MEDIA INFO

Spoiler: mostrar
General
Unique ID : 199196097807075115128065047329317943463 (0x95DBC5E0857534DB90D64A62047578A7)
Complete name : D:\Archivos de programa\eMule\Incoming\Nunca.hables.con.desconocidos.1994.(DVD+VHS.H264.AC3.Dual.[Spanish.English]).By.SitherKiller+Jabpc-TERRORFANTASTICO.mkv
Format : Matroska
Format version : Version 4 / Version 2
File size : 1.58 GiB
Duration : 1h 29mn
Overall bit rate : 2 526 Kbps
Encoded date : UTC 2016-08-09 18:49:14
Writing application : mkvmerge v6.1.0 ('Old Devil') built on Mar 4 2013 09:10:42
Writing library : libebml v1.3.0 + libmatroska v1.4.0

Video
ID : 1
Format : AVC
Format/Info : Advanced Video Codec
Format profile : High@L4.1
Format settings, CABAC : Yes
Format settings, ReFrames : 5 frames
Codec ID : V_MPEG4/ISO/AVC
Duration : 1h 29mn
Bit rate : 2 140 Kbps
Width : 720 pixels
Height : 540 pixels
Display aspect ratio : 4:3
Frame rate mode : Constant
Frame rate : 25.000 fps
Color space : YUV
Chroma subsampling : 4:2:0
Bit depth : 8 bits
Scan type : Progressive
Bits/(Pixel*Frame) : 0.220
Stream size : 1.31 GiB (83%)
Writing library : x264 core 130 r2273 b3065e6
Encoding settings : cabac=1 / ref=5 / deblock=1:-1:-1 / analyse=0x3:0x113 / me=umh / subme=8 / psy=1 / psy_rd=1.00:0.10 / mixed_ref=1 / me_range=16 / chroma_me=1 / trellis=1 / 8x8dct=1 / cqm=0 / deadzone=21,11 / fast_pskip=1 / chroma_qp_offset=-3 / threads=6 / lookahead_threads=1 / sliced_threads=0 / nr=0 / decimate=1 / interlaced=0 / bluray_compat=0 / constrained_intra=0 / bframes=3 / b_pyramid=2 / b_adapt=2 / b_bias=0 / direct=3 / weightb=1 / open_gop=0 / weightp=2 / keyint=250 / keyint_min=25 / scenecut=40 / intra_refresh=0 / rc_lookahead=50 / rc=2pass / mbtree=1 / bitrate=2140 / ratetol=1.0 / qcomp=0.60 / qpmin=0 / qpmax=69 / qpstep=4 / cplxblur=20.0 / qblur=0.5 / ip_ratio=1.40 / aq=1:1.00
Language : English
Default : Yes
Forced : No

Audio #1
ID : 2
Format : AC-3
Format/Info : Audio Coding 3
Mode extension : CM (complete main)
Format settings, Endianness : Big
Codec ID : A_AC3
Duration : 1h 29mn
Bit rate mode : Constant
Bit rate : 192 Kbps
Channel(s) : 2 channels
Channel positions : Front: L R
Sampling rate : 48.0 KHz
Bit depth : 16 bits
Compression mode : Lossy
Stream size : 123 MiB (8%)
Language : Spanish
Default : Yes
Forced : No

Audio #2
ID : 3
Format : AC-3
Format/Info : Audio Coding 3
Mode extension : CM (complete main)
Format settings, Endianness : Big
Codec ID : A_AC3
Duration : 1h 29mn
Bit rate mode : Constant
Bit rate : 192 Kbps
Channel(s) : 2 channels
Channel positions : Front: L R
Sampling rate : 48.0 KHz
Bit depth : 16 bits
Compression mode : Lossy
Stream size : 123 MiB (8%)
Language : English
Default : No
Forced : No


CAPTURAS


Imagen


Imagen


Imagen


Imagen


Imagen



ENLACES

PELICULA: Nunca.hables.con.desconocidos.1994.(DVD+VHS.H264.AC3.Dual.[Spanish.English]).By.SitherKiller+Jabpc-TERRORFANTASTICO.mkv [1.58 Gb] [Info]

A disfrutar de la peli :D :D :D :D :D
COMPARTE Y DEJA COMPARTIR. LA MULA TE LO PIDE.

Avatar de Usuario
Dardo
Arrow Thrower Clown

Mensajes: 15903
Registrado: Dom 19 Oct, 2003 02:00
Ubicación: Entre Encinas y Dolomías

Re: Nunca hables con desconocidos (Robert Michael Lewis, 1994) DVDRip

Mensajepor Dardo » Sab 13 Ago, 2016 23:07

Muy buen trabajo Sither, y aunque la he tenido que ver casi seguro no recuerdo nada de ella, asi que me apunto.

:sonrisa:

ostrata

Mensajes: 1468
Registrado: Mié 24 Mar, 2010 17:29

Re: Nunca hables con desconocidos (Robert Michael Lewis, 1994) DVDRip

Mensajepor ostrata » Dom 14 Ago, 2016 00:31

Gracias. :)

Saludos.

Avatar de Usuario
jcarlos7840

Mensajes: 234
Registrado: Mar 03 May, 2011 20:27

Re: Nunca hables con desconocidos (Robert Michael Lewis, 1994) DVDRip

Mensajepor jcarlos7840 » Mar 23 Ago, 2016 13:11

muchas gracias por este aporte

Avatar de Usuario
janca

Mensajes: 1975
Registrado: Dom 20 Dic, 2009 09:31

Re: Nunca hables con desconocidos (Robert Michael Lewis, 1994) DVDRip Dual

Mensajepor janca » Mié 14 Sep, 2016 17:37

Gracias Sither

Avatar de Usuario
ITALOCO
Que bonito es el cine.

Mensajes: 15
Registrado: Mié 01 Mar, 2017 23:19
Ubicación: Valencia - Spain
Contactar:

Re: Nunca hables con desconocidos (Robert Michael Lewis, 1994) DVDRip Dual

Mensajepor ITALOCO » Mié 16 May, 2018 19:30

creo que terrorfantastico ha caido o la han dejado caer


Volver a “Televisión”

¿Quién está conectado?

Usuarios navegando por este Foro: No hay usuarios registrados visitando el Foro y 4 invitados