El hombre que ríe (Paul Leni, 1928) HD 720p VOSE

La edad de la Pantalla de Plata. Publica y encuentra enlaces p2p de filmes silentes (desde los albores del Cine hasta los años 30) en esta sección.
Responder
Avatar de Usuario
fronky
[FrOnkY]
Mensajes: 1966
Registrado: Jue 10 Dic, 2009 16:47
Ubicación: EntreCorchetes

El hombre que ríe (Paul Leni, 1928) HD 720p VOSE

Mensaje por fronky » Mié 26 Mar, 2014 00:16

Imagen

CONjejeLADA

Imagen

IMDb

TÍTULO ORIGINAL The Man Who Laughs
GUIÓN J. Grubb Alexander, Walter Anthony (Victor Hugo)
MÚSICA William Axt
FOTOGRAFÍA Gilbert Warrenton
REPARTO
Conrad Veidt, Mary Philbin, Olga Baclanova, Cesare Gravina, Julius Molnar Jr., Brandon Hurst, Stuart Holmes, Sam De Grasse, George Siegmann, Josephine Crowell
PRODUCCIÓN Universal Pictures
SINOPSIS Gwynplaine

Imagen

Código: Seleccionar todo

The.Man.Who.Laughs.(El.Hombre.Que.Ríe).1928.HQTV.720p.x264.AC3.[FrOnkY].mkv

Format                                   : Matroska
Format version                           : Version 4 / Version 2
File size                                : 3.24 GiB
Duration                                 : 1h 50mn
Overall bit rate                         : 4 189 Kbps
Writing application                      : mkvmerge v6.8.0 ('Theme for Great Cities') 32bit built on Mar  2 2014 21:27:07
Writing library                          : libebml v1.3.0 + libmatroska v1.4.1
Attachment                               : Yes / Yes / Yes / Yes / Yes / Yes

Video
ID                                       : 1
Format                                   : AVC
Format/Info                              : Advanced Video Codec
Format profile                           : High@L4.1
Format settings, CABAC                   : Yes
Format settings, ReFrames                : 12 frames
Codec ID                                 : V_MPEG4/ISO/AVC
Duration                                 : 1h 50mn
Bit rate                                 : 3 993 Kbps
Width                                    : 952 pixels
Height                                   : 720 pixels
Display aspect ratio                     : 4:3
Frame rate mode                          : Constant
Frame rate                               : 23.976 fps
Color space                              : YUV
Chroma subsampling                       : 4:2:0
Bit depth                                : 8 bits
Scan type                                : Progressive
Bits/(Pixel*Frame)                       : 0.243
Stream size                              : 3.03 GiB (93%)
Writing library                          : x264 core 142 r2389 956c8d8
Language                                 : English
Default                                  : Yes
Forced                                   : No

Audio
ID                                       : 2
Format                                   : AC-3
Format/Info                              : Audio Coding 3
Mode extension                           : CM (complete main)
Format settings, Endianness              : Big
Codec ID                                 : A_AC3
Duration                                 : 1h 50mn
Bit rate mode                            : Constant
Bit rate                                 : 192 Kbps
Channel(s)                               : 2 channels
Channel positions                        : Front: L R
Sampling rate                            : 48.0 KHz
Bit depth                                : 16 bits
Stream size                              : 152 MiB (5%)
Language                                 : English
Default                                  : Yes
Forced                                   : No

Text
ID                                       : 3
Format                                   : UTF-8
Codec ID                                 : S_TEXT/UTF8
Codec ID/Info                            : UTF-8 Plain Text
Language                                 : Spanish
Default                                  : Yes
Forced                                   : No

Menu
00:00:00.000                             : en:Chapter 01
00:03:48.500                             : en:Chapter 02
00:07:10.101                             : en:Chapter 03
00:15:12.101                             : en:Chapter 04
00:19:52.501                             : en:Chapter 05
00:24:49.801                             : en:Chapter 06
00:30:50.502                             : en:Chapter 07
00:41:36.502                             : en:Chapter 08
00:50:22.702                             : en:Chapter 09
00:59:28.303                             : en:Chapter 10
01:09:28.503                             : en:Chapter 11
01:16:59.994                             : en:Chapter 12
01:24:36.304                             : en:Chapter 13
01:30:27.804                             : en:Chapter 14
01:38:03.505                             : en:Chapter 15
Jenialidad Silente
PreLook Joker


Imagen
Imagen

Imagen
Imagen

Imagen
Imagen

Imagen
Imagen

Imagen
Imagen

Imagen
Imagen

Imagen
Imagen

The.Man.Who.Laughs.(El.Hombre.Que.Ríe).1928.HQTV.720p.x264.AC3.(FrOnkY).mkv
Imagen

Avatar de Usuario
loga
Mensajes: 573
Registrado: Jue 09 Ago, 2012 13:54

Re: El hombre que ríe (Paul Leni, 1928) HD 720p VOSE

Mensaje por loga » Mié 26 Mar, 2014 01:34

:malicia:

Avatar de Usuario
dhrapi
Dipsómano consagrado.
Mensajes: 6375
Registrado: Jue 06 Nov, 2003 01:00
Ubicación: En la boda de Ignatius Reilly; con Tupp.

Re: El hombre que ríe (Paul Leni, 1928) HD 720p VOSE

Mensaje por dhrapi » Mié 26 Mar, 2014 11:25

Magnífico.

Muchas gracias, fronky. :plas:

:wink:
Jamás saldré vivo de este mundo.
Imagen

Avatar de Usuario
Spanish Jhonny
Mensajes: 2568
Registrado: Mar 18 Sep, 2012 16:01

Re: El hombre que ríe (Paul Leni, 1928) HD 720p VOSE

Mensaje por Spanish Jhonny » Mié 26 Mar, 2014 18:29

Muchas gracias :sonrisa:

KaneWelles
Mensajes: 198
Registrado: Mié 04 Jul, 2012 18:15

Re: El hombre que ríe (Paul Leni, 1928) HD 720p VOSE

Mensaje por KaneWelles » Mié 26 Mar, 2014 20:49

Muchas gracias fronky, en breve subiremos a epublibre la novela de Víctor Hugo en que se basa esta película.
:plas: :plas: :plas:

slinky70
Mensajes: 56
Registrado: Mié 19 May, 2004 02:00

Re: El hombre que ríe (Paul Leni, 1928) HD 720p VOSE

Mensaje por slinky70 » Mié 26 Mar, 2014 21:20

Imprescindible! Muxas gracias!!! :D

Avatar de Usuario
fronky
[FrOnkY]
Mensajes: 1966
Registrado: Jue 10 Dic, 2009 16:47
Ubicación: EntreCorchetes

Re: El Hombre Que Ríe (Paul Leni, 1928) HQTV 720p VOSE

Mensaje por fronky » Jue 27 Mar, 2014 18:09

Imagen
Imagen

Enhorabuena a todos los implicados.
La respuesta chupchúp se está moviendo muy por encima de lo previsto.
Con CINECINE así, la satisfacción se me antoja triple (si no cuádruplep)

Imagen

Imagen
Imagen

jmog
Mensajes: 975
Registrado: Mié 06 Mar, 2013 23:22

Re: El hombre que ríe (Paul Leni, 1928) HD 720p VOSE

Mensaje por jmog » Jue 27 Mar, 2014 22:58

Yo no me río :mrgreen:
Gracias fro

bolzato
Mensajes: 140
Registrado: Vie 14 Sep, 2012 16:36

Re: El hombre que ríe (Paul Leni, 1928) HD 720p VOSE

Mensaje por bolzato » Jue 17 Abr, 2014 08:10

Hola FrOnkY

¡Muchas gracias! una vez más

Saludos

Avatar de Usuario
samourai_
Mensajes: 96
Registrado: Lun 05 Nov, 2012 07:26

Re: El hombre que ríe (Paul Leni, 1928) HD 720p VOSE

Mensaje por samourai_ » Sab 11 Abr, 2015 01:53

Esta película me encanta, muchísimas gracias. :plas:

Iscaremyself
Mensajes: 1
Registrado: Mié 30 Sep, 2015 22:34

Re: El hombre que ríe (Paul Leni, 1928) HD 720p VOSE

Mensaje por Iscaremyself » Mié 30 Sep, 2015 22:38

Muchas gracias

joker_arias
Mensajes: 1
Registrado: Jue 11 Oct, 2018 05:30

Re: El hombre que ríe (Paul Leni, 1928) HD 720p VOSE

Mensaje por joker_arias » Jue 11 Oct, 2018 05:33

link pliz

Avatar de Usuario
Cirlot
Marxista, por Karl y Groucho
DXC Republican Clown
Mensajes: 4161
Registrado: Jue 05 Ago, 2004 02:00
Ubicación: Level 5

Re: El hombre que ríe (Paul Leni, 1928) HD 720p VOSE

Mensaje por Cirlot » Jue 11 Oct, 2018 13:17

joker_arias escribió:link pliz
Está en el mismo mensaje que abre el hilo.
Salud, comas, clowns y República


Responder