Eye of the Devil (J. Lee Thompson, 1966) DVDRip VOSE

Publica y encuentra enlaces p2p de filmes hasta 1980 en esta sección.
Avatar de Usuario
Dardo
Arrow Thrower Clown
Mensajes: 16147
Registrado: Dom 19 Oct, 2003 02:00
Ubicación: Entre Encinas y Dolomías

Re: Eye of the Devil (J. Lee Thompson, 1966) DVDRip VOSE

Mensaje por Dardo » Dom 08 Nov, 2015 10:11

Repuestos carteles y capturas, y he añadido una foto de Tate con Jomi que tenía por ahí guardada... :sonrisa:

Vuelvo a repartir unos megas en lanzamiento. :wink:

ostrata
Mensajes: 1686
Registrado: Mié 24 Mar, 2010 17:29

Re: Eye of the Devil (J. Lee Thompson, 1966) DVDRip VOSE

Mensaje por ostrata » Dom 08 Nov, 2015 10:14

Gracias, esta no lo conozco, pero Lee Thompson es siempre interesante.

Saludos.

Avatar de Usuario
jomime
Mensajes: 608
Registrado: Vie 02 Mar, 2012 13:27

Re: Eye of the Devil (J. Lee Thompson, 1966) DVDRip VOSE

Mensaje por jomime » Dom 08 Nov, 2015 13:09

Dardo escribió:Repuestos carteles y capturas, y he añadido una foto de Tate con Jomi que tenía por ahí guardada... :sonrisa:
Lamento mucho desmerecer a vuestro ídolo en la instantánea :mrgreen: :mrgreen:

Avatar de Usuario
ChicoSalami
Mensajes: 364
Registrado: Vie 15 Jul, 2005 02:00
Ubicación: Junto a la vía del tren

Re: Eye of the Devil (J. Lee Thompson, 1966) DVDRip VOSE

Mensaje por ChicoSalami » Sab 30 Abr, 2016 13:39

Descargando. Muchas gracias Dardo.

Avatar de Usuario
Teeninlove
Mensajes: 1135
Registrado: Dom 25 Jul, 2004 02:00

Re: Eye of the Devil (J. Lee Thompson, 1966) DVDRip VOSE

Mensaje por Teeninlove » Mié 13 Mar, 2019 16:07

Por ahí rula esto, que no sé si sería mejora:
Eye of the Devil (1966) - 1080p HDTVRip.x264 (Kingtut)-CG.mkv

Código: Seleccionar todo

General
Unique ID : 195137843697488713715588555415608779393 (0x92CE2E805A6DAF5FAF815A9F1DEA6281)
Complete name : Eye of the Devil (1966) - 1080p HDTVRip.x264 (Kingtut)-CG.mkv
Format : Matroska
Format version : Version 4
File size : 6.84 GiB
Duration : 1 h 35 min
Overall bit rate : 10.2 Mb/s
Encoded date : UTC 2018-10-08 17:13:41
Writing application : mkvmerge v26.0.0 ('In The Game') 64-bit
Writing library : libebml v1.3.6 + libmatroska v1.4.9

Video
ID : 1
Format : AVC
Format/Info : Advanced Video Codec
Format profile : High@L4.1
Format settings : CABAC / 4 Ref Frames
Format settings, CABAC : Yes
Format settings, RefFrames : 4 frames
Codec ID : V_MPEG4/ISO/AVC
Duration : 1 h 35 min
Bit rate : 10 000 kb/s
Width : 1 920 pixels
Height : 1 080 pixels
Display aspect ratio : 16:9
Original display aspect ratio : 16:9
Frame rate mode : Constant
Frame rate : 23.976 (24000/1001) FPS
Color space : YUV
Chroma subsampling : 4:2:0
Bit depth : 8 bits
Scan type : Progressive
Bits/(Pixel*Frame) : 0.201
Stream size : 6.68 GiB (98%)
Writing library : x264 core 155 r2901 7d0ff22
Encoding settings : cabac=1 / ref=4 / deblock=1:-3:-3 / analyse=0x3:0x133 / me=tesa / subme=11 / psy=1 / psy_rd=1.00:0.00 / mixed_ref=1 / me_range=24 / chroma_me=1 / trellis=2 / 8x8dct=1 / cqm=0 / deadzone=21,11 / fast_pskip=1 / chroma_qp_offset=-2 / threads=18 / lookahead_threads=4 / sliced_threads=0 / nr=0 / decimate=1 / interlaced=0 / bluray_compat=0 / constrained_intra=0 / bframes=16 / b_pyramid=2 / b_adapt=2 / b_bias=0 / direct=3 / weightb=1 / open_gop=0 / weightp=2 / keyint=240 / keyint_min=24 / scenecut=40 / intra_refresh=0 / rc_lookahead=30 / rc=2pass / mbtree=1 / bitrate=10000 / ratetol=1.0 / qcomp=0.60 / qpmin=0 / qpmax=69 / qpstep=4 / cplxblur=20.0 / qblur=0.5 / vbv_maxrate=50000 / vbv_bufsize=62500 / nal_hrd=none / filler=0 / ip_ratio=1.40 / aq=1:1.00
Default : Yes
Forced : No
Color range : Limited
Color primaries : BT.709
Transfer characteristics : BT.709
Matrix coefficients : BT.709

Audio
ID : 2
Format : AC-3
Format/Info : Audio Coding 3
Commercial name : Dolby Digital
Codec ID : A_AC3
Duration : 1 h 35 min
Bit rate mode : Constant
Bit rate : 224 kb/s
Channel(s) : 2 channels
Channel layout : L R
Sampling rate : 48.0 kHz
Frame rate : 31.250 FPS (1536 SPF)
Bit depth : 16 bits
Compression mode : Lossy
Delay relative to video : -5 ms
Stream size : 153 MiB (2%)
Title : Stereo
Service kind : Complete Main
Default : Yes
Forced : No

Menu
00:00:00.000 : :Chapter 01
00:08:00.000 : :Chapter 02
00:16:00.000 : :Chapter 03
00:24:00.000 : :Chapter 04
00:32:00.000 : :Chapter 05
00:40:00.000 : :Chapter 06
00:48:00.000 : :Chapter 07
00:56:00.000 : :Chapter 08
01:04:00.000 : :Chapter 09
01:12:00.000 : :Chapter 10
01:20:00.000 : :Chapter 11
01:28:00.000 : :Chapter 12
Imagen
Imagen
Imagen
Imagen
Imagen

Un pelín verdosa la imagen.

torresmostoles
La felicidad convertida en cine!
Mensajes: 51
Registrado: Dom 25 Mar, 2018 18:55

Re: Eye of the Devil (J. Lee Thompson, 1966) DVDRip VOSE

Mensaje por torresmostoles » Dom 17 Mar, 2019 11:16

gran aporte vamos a descargar desconocia esta pelicula de thompson!!

Avatar de Usuario
Nixganush
Mensajes: 249
Registrado: Sab 29 May, 2004 02:00
Ubicación: In a Lonely Place

Re: Eye of the Devil (J. Lee Thompson, 1966) DVDRip VOSE

Mensaje por Nixganush » Lun 18 Mar, 2019 17:54

Muchas gracias a Dardo y a El Profe. :plas:
La dictadura es el sistema de gobierno en el que todo lo que no está prohibido es obligatorio. (Enrique Jardiel Poncela)

Responder