Detour (Edgar G. Ulmer, 1945) DVDRip VOSE

Publica y encuentra enlaces p2p de filmes hasta 1980 en esta sección.
Responder
Avatar de Usuario
roisiano
Polemista nato
Mensajes: 5548
Registrado: Dom 17 Jul, 2005 02:00
Ubicación: Al final del río

Detour (Edgar G. Ulmer, 1945) DVDRip VOSE

Mensaje por roisiano » Sab 09 Abr, 2011 22:12

El Desvío (Detour) (Edgar G. Ulmer, 1945)

Imagen
Imagen
Filmaffinity | IMDb

GUIÓN: Martin Goldsmith (Novela: Martin Goldsmith)
MÚSICA: Leo Erdody
FOTOGRAFÍA: Benjamin H. Kline (B&W)
REPARTO: Tom Neal, Ann Savage, Claudia Drake, Edmund MacDonald, Tim Ryan, Esther Howard, Pat Gleason, Don Brodie, Roger Clark, Eddie Hall, Harry Strang
PRODUCTORA: Producers Releasing Corporation
GÉNERO: Cine negro | Thriller | Intriga | Serie B
SINOPSIS: La vida de Al Roberts, un pianista de Nueva York, se convierte en una pesadilla cuando decide hacer auto-stop para buscar a su novia que vive en Los Ángeles. Una noche lluviosa, el hombre que lo lleva en su coche muere... (FILMAFFINITY)


Gracias a elsteir por el DVDR:

Ripeo anamórfico

Código: Seleccionar todo

Resolution: 718 x 572
Frame aspect ratio: 359:286 = 1.255244
Pixel aspect ratio: 765:718 = 1.065459
Display aspect ratio: 765:572 = 1.337412 (~4:3)
con esta configuración:

Código: Seleccionar todo

"C:\x264.exe" --preset veryslow --tune film --crf 18.0 --no-chroma-me --level 4.1 --output "C:\mi_ripeo.mkv" "C:\mi_script.avs" --sar 16:15
Imagen
Imagen
Imagen
Imagen
Imagen

Código: Seleccionar todo

Format : Matroska 
File size : 1.09 GiB 
Duration : 1h 5mn 
Overall bit rate : 2 391 Kbps 
Encoded date : UTC 2011-04-09 19:46:53 
Writing application : mkvmerge v4.0.0 ('The Stars were mine') built on Jun 6 2010 16:18:42 
Writing library : libebml v1.0.0 + libmatroska v1.0.0 

Video 
ID : 1 
Format : AVC 
Format/Info : Advanced Video Codec 
Format profile : High@L4.1 
Format settings, CABAC : Yes 
Format settings, ReFrames : 16 frames 
Codec ID : V_MPEG4/ISO/AVC 
Duration : 1h 5mn 
Bit rate : 2 151 Kbps 
Width : 718 pixels 
Height : 572 pixels 
Display aspect ratio : 4:3 
Original display aspect ratio : 4:3 
Frame rate : 25.000 fps 
Color space : YUV 
Chroma subsampling : 4:2:0 
Bit depth : 8 bits 
Scan type : Progressive 
Bits/(Pixel*Frame) : 0.210 
Stream size : 1 003 MiB (90%) 
Writing library : x264 core 114 r1924 08d04a4 
Encoding settings : cabac=1 / ref=16 / deblock=1:-1:-1 / analyse=0x3:0x133 / me=umh / subme=10 / psy=1 / psy_rd=1.00:0.15 / mixed_ref=1 / me_range=24 / chroma_me=0 / trellis=2 / 8x8dct=1 / cqm=0 / deadzone=21,11 / fast_pskip=1 / chroma_qp_offset=-3 / threads=6 / sliced_threads=0 / nr=0 / decimate=1 / interlaced=0 / constrained_intra=0 / bframes=8 / b_pyramid=2 / b_adapt=2 / b_bias=0 / direct=3 / weightb=1 / open_gop=0 / weightp=2 / keyint=250 / keyint_min=25 / scenecut=40 / intra_refresh=0 / rc_lookahead=60 / rc=crf / mbtree=1 / crf=18.0 / qcomp=0.60 / qpmin=0 / qpmax=69 / qpstep=4 / ip_ratio=1.40 / aq=1:1.00 
Language : English 

Audio 
ID : 2 
Format : AC-3 
Format/Info : Audio Coding 3 
Mode extension : CM (complete main) 
Codec ID : A_AC3 
Duration : 1h 5mn 
Bit rate mode : Constant 
Bit rate : 192 Kbps 
Channel(s) : 2 channels 
Channel positions : Front: L R 
Sampling rate : 48.0 KHz 
Bit depth : 16 bits 
Compression mode : Lossy 
Stream size : 89.5 MiB (8%) 
Language : English 

Text 
ID : 3 
Format : UTF-8 
Codec ID : S_TEXT/UTF8 
Codec ID/Info : UTF-8 Plain Text 
Language : Spanish 

:arrow: Detour.1945.DVDRip.x264.AC3.mkv (DVDRip V.O. , con subtítulos en español en el contenedor MKV)


----------------------------------------------------

Imagen Imagen

Web oficial del codec x264 (inglés) | Web en español sobre el codec x264
Manual de ripeo con x264 en línea de comandos (español) | Parámetros de codificación (inglés)
Contenedor Matroska (español) | Matroska en wikipedia (español): software de PC compatible, etc.
MKVToolnix, herramientas de edición para matroska (inglés) | Tutorial MKVToolnix (español)
MKVExtractGui | Manual de extracción de cadenas de audio/vídeo/subtítulos en MKV (español)
----------------------------------------------------

Detour (Edgar G. Ulmer, 1945) TVRip ESP
Detour (Edgar G. Ulmer, 1945) DVDR Full
Florentino, fíchame.
Por 6.000 € netos mensuales te convierto en el mejor presidente de la historia.

Avatar de Usuario
theycame2001
Mensajes: 1916
Registrado: Sab 10 Jun, 2006 05:30

Re: Detour (Edgar G. Ulmer, 1945) DVDRip VOSE (MKV)

Mensaje por theycame2001 » Sab 09 Abr, 2011 23:08

¡Qué buen video! Muchas gracias!!!! :plas: :plas: :plas:
La vida y el triúnfo no son tan difíciles
como nos lo quieren vender los que pretenden frustrarnos.

Recuerden que Theycame se lo advierte!

Avatar de Usuario
Coursodon
Mensajes: 2225
Registrado: Vie 15 Jul, 2005 02:00
Ubicación: Extremadura

Re: Detour (Edgar G. Ulmer, 1945) DVDRip VOSE

Mensaje por Coursodon » Dom 10 Abr, 2011 10:23

Pinchada, gracias.
It makes no difference what men think about war, said the Judge. War endures... War was always here. Before man was, War waited...
Blood Meridian - Cormac McCarthy.

Avatar de Usuario
vituko
Mensajes: 747
Registrado: Mié 06 Ene, 2010 13:28

Re: Detour (Edgar G. Ulmer, 1945) DVDRip VOSE

Mensaje por vituko » Lun 05 Mar, 2012 23:23

Gracias :D

Avatar de Usuario
oscarriutort
Mensajes: 2143
Registrado: Mié 11 Jun, 2003 02:00
Ubicación: Okinawa

Re: Detour (Edgar G. Ulmer, 1945) DVDRip VOSE

Mensaje por oscarriutort » Mar 16 Abr, 2013 23:10

gracias
"Los videojuegos no afectan a los niños. Si fuera así y el comecocos nos hubiera afectado, ahora estaríamos deambulando por lugares oscuros, comiendo píldoras mágicas y escuchando ritmos electrónicos repetitivos"

Avatar de Usuario
letesbius
Mensajes: 62
Registrado: Dom 12 May, 2013 21:16

Re: Detour (Edgar G. Ulmer, 1945) DVDRip VOSE

Mensaje por letesbius » Sab 06 Jul, 2013 08:53

bajando. Gracias
badlands

Antígono
Mensajes: 531
Registrado: Vie 01 Mar, 2013 18:59

Re: Detour (Edgar G. Ulmer, 1945) DVDRip VOSE

Mensaje por Antígono » Mar 14 Ene, 2014 20:06

Gracias roisiano, a ver que tal está este famoso noir.

Avatar de Usuario
Spanish Jhonny
Mensajes: 2464
Registrado: Mar 18 Sep, 2012 16:01

Re: Detour (Edgar G. Ulmer, 1945) DVDRip VOSE

Mensaje por Spanish Jhonny » Vie 15 Ago, 2014 21:35

Pinchada, muchas gracias roisiano
Un saludo

Avatar de Usuario
Forrest Gump
Mensajes: 1414
Registrado: Vie 18 May, 2007 18:06
Ubicación: Zihuatanejo

Re: Detour (Edgar G. Ulmer, 1945) DVDRip VOSE

Mensaje por Forrest Gump » Sab 18 Abr, 2015 01:16

Acabo de darme cuenta de que esta joya también la perdí con un disco duro, así que bajo nuevamente el roisirip.
Muchas gracias, compa. :plas:
Made it, Ma, top of the world!

Avatar de Usuario
samourai_
Mensajes: 79
Registrado: Lun 05 Nov, 2012 07:26

Re: Detour (Edgar G. Ulmer, 1945) DVDRip VOSE

Mensaje por samourai_ » Sab 18 Abr, 2015 22:42

Gracias.

jmog
Mensajes: 974
Registrado: Mié 06 Mar, 2013 23:22

Re: Detour (Edgar G. Ulmer, 1945) DVDRip VOSE

Mensaje por jmog » Dom 19 Abr, 2015 00:47

Yo también aprovecho la ocasión, gracias roi.

Avatar de Usuario
roisiano
Polemista nato
Mensajes: 5548
Registrado: Dom 17 Jul, 2005 02:00
Ubicación: Al final del río

Re: Detour (Edgar G. Ulmer, 1945) DVDRip VOSE

Mensaje por roisiano » Sab 16 Mar, 2019 23:17

BDRip en camino.
Florentino, fíchame.
Por 6.000 € netos mensuales te convierto en el mejor presidente de la historia.

Avatar de Usuario
Jolmart
Mensajes: 641
Registrado: Vie 03 Abr, 2015 14:02

Re: Detour (Edgar G. Ulmer, 1945) DVDRip VOSE

Mensaje por Jolmart » Dom 17 Mar, 2019 00:39

Muchas Gracias. roisiano
" De USA importamos todo, hasta las mentiras ".

joramor
Mensajes: 1461
Registrado: Vie 05 Nov, 2010 19:55

Re: Detour (Edgar G. Ulmer, 1945) DVDRip VOSE

Mensaje por joramor » Dom 17 Mar, 2019 10:54

Muchas gracias roisiano. Salu2.

Responder