El último tren de Gun Hill (John Sturges, 1959) DVDRip Dual SE

Publica y encuentra enlaces p2p de filmes hasta 1980 en esta sección.
Avatar de Usuario
juan_0316
Mensajes: 1871
Registrado: Vie 21 Mar, 2003 01:00

El último tren de Gun Hill (John Sturges, 1959) DVDRip Dual SE

Mensaje por juan_0316 » Vie 25 Feb, 2005 09:10

Post que abrió el hilo:
Spoiler: mostrar
Trasteando por la mula he encontrado el siguiente elink y por aquí solo se posteó un TVRip:
Imagen

Género:
Western
Nacionalidad: USA
Director: John Sturges
Actores: Kirk Douglas, Anthony Quinn, Carolyn Jones, Earl Holliman, Brad Dexter, Brian G. Hutton, Ziva Rodann
Productor: Hal B. Wallis
Guión: Les Crutchfield, James Poe
Fotografía: Charles Lang
Música: Dimitri Tiomkin
Sinopsis: El sheriff Matt Morgan, que ejerce su mandato en la localidad de Gun Hill, se desplaza al feudo ganadero más importante de la comarca, ya que sospecha que allí se encuentra el asesino de su mujer. Tras una minuciosa investigación, Matt descubre que el hijo de Boldon, Rick, es el hombre que busca.
Calificación moral: Todos los públicos
Duración: 90 minutos.

El ripeo es cortesía de JuanPa

Código: Seleccionar todo

El ultimo tren de Gun Hill Spa-Eng.avi
Tamaño....: 703 MB (or 719,872 KB or 737,148,928 bytes)
------------------ Video ------------------
Codec.....: XviD
Duración..: 01:30:27 (135,676 fr)
Resolución: 512x272 (1.88:1) [=32:17]
Bitrate...: 949 kb/s
FPS.......: 25.000
------------------ Audio ------------------
Codec.....: 0x0055(MP3) ID'd as MPEG-1 Layer 3
Bitrate...: 64 kb/s, monophonic CBR

ed2k linkEl ultimo tren de Gun Hill DVDrip Spa-Eng.avi ed2k link stats

Subs en descarga directa

hilo de su publicacion
****************************************

DMMD escribió:
Imagen


IMDb



El último tren de Gun Hill


Título original Last Train from Gun Hill
Año 1959
Duración 98 min.
País Imagen
Director John Sturges
Guión James Poe (Historia: Les Crutchfield)
Música Dimitri Tiomkin
Fotografía Charles Lang Jr.
Reparto
Kirk Douglas, Anthony Quinn, Carolyn Jones, Earl Holliman, Brad Dexter, Ziva Rodann, Brian Hutton

Productora Paramount Pictures
Género Western | Racismo. Venganza
Sinopsis
El sheriff Matt Morgan (Kirk Douglas) ha jurado llevar ante la justicia al asesino de su esposa, una joven india. Su tarea se complica cuando se entera de que el padre del criminal es un viejo amigo suyo, el ganadero Craig Belden (Anthony Quinn). A pesar de todo, Morgan está decidido a arrestar al culpable y marcharse con él en el tren de las 9:00. (FILMAFFINITY)




Imagen

Código: Seleccionar todo

General
Unique ID                                : 205793839497261060112231897192154882027 (0x9AD273A83C47DD559A258743390D5FEB)
Complete name                            : C:\Program Files (x86)\eMule\Incoming\1959-Last.Train.From.Gun.Hill.DVDx264.AC3.[DMMD].mkv
Format                                   : Matroska
Format version                           : Version 4 / Version 2
File size                                : 1.54 GiB
Duration                                 : 1h 34mn
Overall bit rate                         : 2 341 Kbps
Movie name                               : 1959-Last.Train.From.Gun.Hill.DVDx264.AC3.[DMMD]
Encoded date                             : UTC 2014-12-25 00:28:03
Writing application                      : mkvmerge v7.2.0 ('On Every Street') 64bit built on Sep 13 2014 15:52:10
Writing library                          : libebml v1.3.0 + libmatroska v1.4.1
Attachements                             : 1.jpg / 2.jpg / 3.jpg / 4.jpg
DURATION                                 : 01:33:47.043000000
NUMBER_OF_FRAMES                         : 669
NUMBER_OF_BYTES                          : 27474
_STATISTICS_WRITING_APP                  : mkvmerge v7.2.0 ('On Every Street') 64bit built on Sep 13 2014 15:52:10
_STATISTICS_WRITING_DATE_UTC             : 2014-12-25 00:28:03
_STATISTICS_TAGS                         : BPS DURATION NUMBER_OF_FRAMES NUMBER_OF_BYTES

Video
ID                                       : 1
Format                                   : AVC
Format/Info                              : Advanced Video Codec
Format profile                           : High@L4.1
Format settings, CABAC                   : Yes
Format settings, ReFrames                : 16 frames
Codec ID                                 : V_MPEG4/ISO/AVC
Duration                                 : 1h 34mn
Bit rate                                 : 1 911 Kbps
Width                                    : 720 pixels
Height                                   : 576 pixels
Display aspect ratio                     : 16:9
Frame rate mode                          : Constant
Frame rate                               : 23.976 fps
Standard                                 : PAL
Color space                              : YUV
Chroma subsampling                       : 4:2:0
Bit depth                                : 8 bits
Scan type                                : Progressive
Bits/(Pixel*Frame)                       : 0.192
Stream size                              : 1.26 GiB (82%)
Writing library                          : x264 core 142 r2431kMod ac76440
Encoding settings                        : cabac=1 / ref=16 / deblock=1:-1:-1 / analyse=0x3:0x133 / me=umh / subme=10 / psy=1 / fade_compensate=0.00 / psy_rd=1.00:0.15 / mixed_ref=1 / me_range=24 / chroma_me=1 / trellis=2 / 8x8dct=1 / cqm=0 / deadzone=21,11 / fast_pskip=1 / chroma_qp_offset=-3 / threads=6 / lookahead_threads=1 / sliced_threads=0 / nr=0 / decimate=1 / interlaced=0 / bluray_compat=0 / constrained_intra=0 / fgo=0 / bframes=8 / b_pyramid=2 / b_adapt=2 / b_bias=0 / direct=3 / weightb=1 / open_gop=0 / weightp=2 / keyint=250 / keyint_min=23 / scenecut=40 / intra_refresh=0 / rc_lookahead=60 / rc=crf / mbtree=1 / crf=19.5000 / qcomp=0.60 / qpmin=0 / qpmax=69 / qpstep=4 / ip_ratio=1.40 / aq=1:1.00
Language                                 : English
Default                                  : Yes
Forced                                   : No
DURATION                                 : 01:34:18.820000000
NUMBER_OF_FRAMES                         : 135676
NUMBER_OF_BYTES                          : 1379744387
_STATISTICS_WRITING_APP                  : mkvmerge v7.2.0 ('On Every Street') 64bit built on Sep 13 2014 15:52:10
_STATISTICS_WRITING_DATE_UTC             : 2014-12-25 00:28:03
_STATISTICS_TAGS                         : BPS DURATION NUMBER_OF_FRAMES NUMBER_OF_BYTES

Audio #1
ID                                       : 2
Format                                   : AC-3
Format/Info                              : Audio Coding 3
Mode extension                           : CM (complete main)
Format settings, Endianness              : Big
Codec ID                                 : A_AC3
Duration                                 : 1h 34mn
Bit rate mode                            : Constant
Bit rate                                 : 192 Kbps
Channel(s)                               : 2 channels
Channel positions                        : Front: L R
Sampling rate                            : 48.0 KHz
Bit depth                                : 16 bits
Compression mode                         : Lossy
Stream size                              : 130 MiB (8%)
Language                                 : English
Default                                  : No
Forced                                   : No

Audio #2
ID                                       : 3
Format                                   : AC-3
Format/Info                              : Audio Coding 3
Mode extension                           : CM (complete main)
Format settings, Endianness              : Big
Codec ID                                 : A_AC3
Duration                                 : 1h 34mn
Bit rate mode                            : Constant
Bit rate                                 : 192 Kbps
Channel(s)                               : 2 channels
Channel positions                        : Front: L R
Sampling rate                            : 48.0 KHz
Bit depth                                : 16 bits
Compression mode                         : Lossy
Delay relative to video                  : 28ms
Stream size                              : 130 MiB (8%)
Language                                 : Spanish
Default                                  : No
Forced                                   : No

Text #1
ID                                       : 4
Format                                   : UTF-8
Codec ID                                 : S_TEXT/UTF8
Codec ID/Info                            : UTF-8 Plain Text
Language                                 : Spanish
Default                                  : No
Forced                                   : No

Text #2
ID                                       : 5
Format                                   : UTF-8
Codec ID                                 : S_TEXT/UTF8
Codec ID/Info                            : UTF-8 Plain Text
Language                                 : English
Default                                  : No
Forced                                   : No

Menu
00:00:00.000                             : en:Chapter 1
00:05:56.880                             : en:Chapter 2
00:11:15.840                             : en:Chapter 3
00:18:14.640                             : en:Chapter 4
00:25:15.120                             : en:Chapter 5
00:31:32.640                             : en:Chapter 6
00:39:20.160                             : en:Chapter 7
00:47:36.120                             : en:Chapter 8
00:53:29.760                             : en:Chapter 9
00:57:57.360                             : en:Chapter 10
01:05:05.880                             : en:Chapter 11
01:12:04.080                             : en:Chapter 12
01:17:42.000                             : en:Chapter 13
01:25:15.000                             : en:Chapter 14




- Ripeo Anamórfico (Displayed 1024 x 576)

- Encode a partir del Dvd Pal de la Paramount.

- Comparativa con el Ntsc y una emisión televisiva que circula por la red.


Imagen
Imagen
Imagen

Imagen



CAPTURAS

Imagen
Imagen
Imagen
Imagen
Imagen


Enlaces de descarga

Imagen


ed2k link1959-Last.Train.From.Gun.Hill.DVDx264.AC3.(DMMD).mkv ed2k link stats

Imagen
Bienaventurados quienes se ríen de sí mismos, pues nunca les faltarán motivos

Zitor
Mensajes: 568
Registrado: Vie 19 Mar, 2004 01:00
Ubicación: A Coruña
Contactar:

Mensaje por Zitor » Vie 25 Feb, 2005 20:27

No conozco al ripper, ni los parámetros técnicos. Pero todo es cuestión de probar
El ripper es JuanPa:
El ultimo tren de Gun Hill Spa-Eng.avi
Tamaño....: 703 MB (or 719,872 KB or 737,148,928 bytes)
------------------ Video ------------------
Codec.....: XviD
Duración..: 01:30:27 (135,676 fr)
Resolución: 512x272 (1.88:1) [=32:17]
Bitrate...: 949 kb/s
FPS.......: 25.000
------------------ Audio ------------------
Codec.....: 0x0055(MP3) ID'd as MPEG-1 Layer 3
Bitrate...: 64 kb/s, monophonic CBR
Más información:
http://cineclasico.miwebgratis.com/viewtopic.php?t=470

Sau2.

Avatar de Usuario
KeyserSoze
Mensajes: 6302
Registrado: Jue 03 Oct, 2002 02:00
Contactar:

Mensaje por KeyserSoze » Vie 25 Feb, 2005 20:45

Añadidos los datos al hilo inicial.

Gracias Zitor por estar al quite
Hilo de presentaciones para nuevos usuarios. Recordad leer los hilos fijos de cada foro antes de abrir un tema. Muchas gracias.

patolucas
Mensajes: 162
Registrado: Dom 30 Nov, 2003 01:00
Ubicación: terrassa

Mensaje por patolucas » Sab 26 Feb, 2005 00:11

pabajo todo!!!!!!

viva el buen western!!!!!!!

un saludo 8)

Avatar de Usuario
figure8
Mensajes: 2284
Registrado: Mar 04 Feb, 2003 01:00
Ubicación: FiguRe in LanDScape

Mensaje por figure8 » Dom 01 May, 2005 20:26

Gracias Juan por el aviso. Bajando. :wink:
Imagen

Avatar de Usuario
Prefecto_Regnault
Mensajes: 1153
Registrado: Jue 20 May, 2004 02:00
Ubicación: En Brazzaville con las tropas de la Francia libre.

Mensaje por Prefecto_Regnault » Mar 23 Ago, 2005 10:19

Informo descarga:

427.89 Mb (60%) Fuentes 97/112

Avatar de Usuario
tirapalla
Mensajes: 2519
Registrado: Mar 30 Mar, 2004 02:00

Mensaje por tirapalla » Mar 23 Ago, 2005 11:00

Pinchada también.

Gracias

Avatar de Usuario
Padowan
Mensajes: 972
Registrado: Lun 19 May, 2003 02:00

Mensaje por Padowan » Mié 24 Ago, 2005 23:03

Bajando.

Thx. :wink:

Avatar de Usuario
Prefecto_Regnault
Mensajes: 1153
Registrado: Jue 20 May, 2004 02:00
Ubicación: En Brazzaville con las tropas de la Francia libre.

Mensaje por Prefecto_Regnault » Mié 24 Ago, 2005 23:52

Informo descarga:

604.47 Mb (85%) Fuentes 101/117

Avatar de Usuario
Prefecto_Regnault
Mensajes: 1153
Registrado: Jue 20 May, 2004 02:00
Ubicación: En Brazzaville con las tropas de la Francia libre.

Mensaje por Prefecto_Regnault » Jue 25 Ago, 2005 10:09

Completa y compartiendo.

manuela
Mensajes: 939
Registrado: Jue 16 Sep, 2004 02:00
Ubicación: Frente al mar

Mensaje por manuela » Jue 25 Ago, 2005 10:28

Como casi siempre, llego un poco tarde, pero espero encontrar fuentes...
"La armonía interior es mejor que la evidente" Heráclito

Avatar de Usuario
vinacha
Mensajes: 1207
Registrado: Jue 08 Ene, 2004 01:00
Ubicación: => Palencia <=

Mensaje por vinacha » Vie 11 May, 2007 08:21

Nuevo ripeo publicado también en dual en BlueTEam

http://blueteam.forogratis.es/viewtopic.php?t=1837

Datos tecnicos:
Tamaño: 1,09 Gb
Codec video: Xvid
Bitrate video: 1425 kbt/s
Resolución: 648x356 px
Codec audio 1: Mp3
Bitrate audio 1: 130 kbt/s
Codec audio 2: Mp3
Bitrate audio 2: 130 kbt/s
ed2k linkEl último tren de Gun Hill (Dvdrip Dual Spa-Ing)(Xvid+Mp3) by taotao (BlueTeam).avi ed2k link stats
ed2k linkEl último tren de Gun Hill. Subtitulos by taotao (BlueTeam).rar ed2k link stats

Avatar de Usuario
gelus
Mensajes: 1410
Registrado: Lun 09 Feb, 2004 01:00

Mensaje por gelus » Sab 12 May, 2007 09:38

papa viaja en tren... :P gracias

Avatar de Usuario
Morrissey21
Mensajes: 5095
Registrado: Lun 20 Oct, 2003 02:00
Ubicación: Vete a saber
Contactar:

Mensaje por Morrissey21 » Sab 12 May, 2007 14:48

A por el nuevo dual.

Gracias, vinacha.

Avatar de Usuario
DMMD
Mensajes: 1895
Registrado: Lun 27 Feb, 2012 14:16

Last Train from Gun Hill (John Sturges, 1959) DVDRip Dual SE

Mensaje por DMMD » Jue 25 Dic, 2014 19:30

Imagen


IMDb



El último tren de Gun Hill


Título original
Año 1959
Duración 98 min.
País Imagen
Director John Sturges
Guión James Poe (Historia: Les Crutchfield)
Música Dimitri Tiomkin
Fotografía Charles Lang Jr.
Reparto
Kirk Douglas, Anthony Quinn, Carolyn Jones, Earl Holliman, Brad Dexter, Ziva Rodann, Brian Hutton

Productora Paramount Pictures
Género Western | Racismo. Venganza
Sinopsis
El sheriff Matt Morgan (Kirk Douglas) ha jurado llevar ante la justicia al asesino de su esposa, una joven india. Su tarea se complica cuando se entera de que el padre del criminal es un viejo amigo suyo, el ganadero Craig Belden (Anthony Quinn). A pesar de todo, Morgan está decidido a arrestar al culpable y marcharse con él en el tren de las 9:00. (FILMAFFINITY)






Código: Seleccionar todo

General
Unique ID                                : 205793839497261060112231897192154882027 (0x9AD273A83C47DD559A258743390D5FEB)
Complete name                            : C:\Program Files (x86)\eMule\Incoming\1959-Last.Train.From.Gun.Hill.DVDx264.AC3.[DMMD].mkv
Format                                   : Matroska
Format version                           : Version 4 / Version 2
File size                                : 1.54 GiB
Duration                                 : 1h 34mn
Overall bit rate                         : 2 341 Kbps
Movie name                               : 1959-Last.Train.From.Gun.Hill.DVDx264.AC3.[DMMD]
Encoded date                             : UTC 2014-12-25 00:28:03
Writing application                      : mkvmerge v7.2.0 ('On Every Street') 64bit built on Sep 13 2014 15:52:10
Writing library                          : libebml v1.3.0 + libmatroska v1.4.1
Attachements                             : 1.jpg / 2.jpg / 3.jpg / 4.jpg
DURATION                                 : 01:33:47.043000000
NUMBER_OF_FRAMES                         : 669
NUMBER_OF_BYTES                          : 27474
_STATISTICS_WRITING_APP                  : mkvmerge v7.2.0 ('On Every Street') 64bit built on Sep 13 2014 15:52:10
_STATISTICS_WRITING_DATE_UTC             : 2014-12-25 00:28:03
_STATISTICS_TAGS                         : BPS DURATION NUMBER_OF_FRAMES NUMBER_OF_BYTES

Video
ID                                       : 1
Format                                   : AVC
Format/Info                              : Advanced Video Codec
Format profile                           : High@L4.1
Format settings, CABAC                   : Yes
Format settings, ReFrames                : 16 frames
Codec ID                                 : V_MPEG4/ISO/AVC
Duration                                 : 1h 34mn
Bit rate                                 : 1 911 Kbps
Width                                    : 720 pixels
Height                                   : 576 pixels
Display aspect ratio                     : 16:9
Frame rate mode                          : Constant
Frame rate                               : 23.976 fps
Standard                                 : PAL
Color space                              : YUV
Chroma subsampling                       : 4:2:0
Bit depth                                : 8 bits
Scan type                                : Progressive
Bits/(Pixel*Frame)                       : 0.192
Stream size                              : 1.26 GiB (82%)
Writing library                          : x264 core 142 r2431kMod ac76440
Encoding settings                        : cabac=1 / ref=16 / deblock=1:-1:-1 / analyse=0x3:0x133 / me=umh / subme=10 / psy=1 / fade_compensate=0.00 / psy_rd=1.00:0.15 / mixed_ref=1 / me_range=24 / chroma_me=1 / trellis=2 / 8x8dct=1 / cqm=0 / deadzone=21,11 / fast_pskip=1 / chroma_qp_offset=-3 / threads=6 / lookahead_threads=1 / sliced_threads=0 / nr=0 / decimate=1 / interlaced=0 / bluray_compat=0 / constrained_intra=0 / fgo=0 / bframes=8 / b_pyramid=2 / b_adapt=2 / b_bias=0 / direct=3 / weightb=1 / open_gop=0 / weightp=2 / keyint=250 / keyint_min=23 / scenecut=40 / intra_refresh=0 / rc_lookahead=60 / rc=crf / mbtree=1 / crf=19.5000 / qcomp=0.60 / qpmin=0 / qpmax=69 / qpstep=4 / ip_ratio=1.40 / aq=1:1.00
Language                                 : English
Default                                  : Yes
Forced                                   : No
DURATION                                 : 01:34:18.820000000
NUMBER_OF_FRAMES                         : 135676
NUMBER_OF_BYTES                          : 1379744387
_STATISTICS_WRITING_APP                  : mkvmerge v7.2.0 ('On Every Street') 64bit built on Sep 13 2014 15:52:10
_STATISTICS_WRITING_DATE_UTC             : 2014-12-25 00:28:03
_STATISTICS_TAGS                         : BPS DURATION NUMBER_OF_FRAMES NUMBER_OF_BYTES

Audio #1
ID                                       : 2
Format                                   : AC-3
Format/Info                              : Audio Coding 3
Mode extension                           : CM (complete main)
Format settings, Endianness              : Big
Codec ID                                 : A_AC3
Duration                                 : 1h 34mn
Bit rate mode                            : Constant
Bit rate                                 : 192 Kbps
Channel(s)                               : 2 channels
Channel positions                        : Front: L R
Sampling rate                            : 48.0 KHz
Bit depth                                : 16 bits
Compression mode                         : Lossy
Stream size                              : 130 MiB (8%)
Language                                 : English
Default                                  : No
Forced                                   : No

Audio #2
ID                                       : 3
Format                                   : AC-3
Format/Info                              : Audio Coding 3
Mode extension                           : CM (complete main)
Format settings, Endianness              : Big
Codec ID                                 : A_AC3
Duration                                 : 1h 34mn
Bit rate mode                            : Constant
Bit rate                                 : 192 Kbps
Channel(s)                               : 2 channels
Channel positions                        : Front: L R
Sampling rate                            : 48.0 KHz
Bit depth                                : 16 bits
Compression mode                         : Lossy
Delay relative to video                  : 28ms
Stream size                              : 130 MiB (8%)
Language                                 : Spanish
Default                                  : No
Forced                                   : No

Text #1
ID                                       : 4
Format                                   : UTF-8
Codec ID                                 : S_TEXT/UTF8
Codec ID/Info                            : UTF-8 Plain Text
Language                                 : Spanish
Default                                  : No
Forced                                   : No

Text #2
ID                                       : 5
Format                                   : UTF-8
Codec ID                                 : S_TEXT/UTF8
Codec ID/Info                            : UTF-8 Plain Text
Language                                 : English
Default                                  : No
Forced                                   : No

Menu
00:00:00.000                             : en:Chapter 1
00:05:56.880                             : en:Chapter 2
00:11:15.840                             : en:Chapter 3
00:18:14.640                             : en:Chapter 4
00:25:15.120                             : en:Chapter 5
00:31:32.640                             : en:Chapter 6
00:39:20.160                             : en:Chapter 7
00:47:36.120                             : en:Chapter 8
00:53:29.760                             : en:Chapter 9
00:57:57.360                             : en:Chapter 10
01:05:05.880                             : en:Chapter 11
01:12:04.080                             : en:Chapter 12
01:17:42.000                             : en:Chapter 13
01:25:15.000                             : en:Chapter 14


- Ripeo Anamórfico (Displayed 1024 x 576)

- Encode a partir del Dvd Pal de la Paramount.




CAPTURAS

Imagen
Imagen
Imagen
Imagen


Enlaces de descarga

Imagen


ed2k link1959-Last.Train.From.Gun.Hill.DVDx264.AC3.(DMMD).mkv ed2k link stats
Última edición por DMMD el Sab 05 Mar, 2016 00:42, editado 1 vez en total.

Avatar de Usuario
LuisNieto
Mensajes: 1132
Registrado: Mié 29 Feb, 2012 16:36
Ubicación: 308 Negra Arroyo Lane

Re: El último tren de Gun Hill (John Sturges, 1959) DVDRip Dual SE

Mensaje por LuisNieto » Jue 25 Dic, 2014 19:33

Juer, que gran regalo de Navidul, mi western favorito, pinchazo ipso-facto y a renovar la versión que tenga!!!

Gracias DMMD!!!!

Avatar de Usuario
Canvicen
Mensajes: 225
Registrado: Mar 16 Sep, 2014 17:49

Re: El último tren de Gun Hill (John Sturges, 1959) DVDRip Dual SE

Mensaje por Canvicen » Jue 25 Dic, 2014 20:10

Me uno a las felicitaciones de Luis Nieto :plas: . No es mi western favorito, pero si considero que es un western sobresaliente.
Muchas gracias DMMD. Pinchado enlace.

joramor
Mensajes: 1848
Registrado: Vie 05 Nov, 2010 19:55

Re: El último tren de Gun Hill (John Sturges, 1959) DVDRip Dual SE

Mensaje por joramor » Jue 25 Dic, 2014 21:21

Muchas gracias DMMD.Salu2 & Felices Fiestas!!

jmog
Mensajes: 973
Registrado: Mié 06 Mar, 2013 23:22

Re: El último tren de Gun Hill (John Sturges, 1959) DVDRip Dual SE

Mensaje por jmog » Jue 25 Dic, 2014 21:58

Muchas gracias DMMD, me apunto a la mejora

Avatar de Usuario
loga
Mensajes: 580
Registrado: Jue 09 Ago, 2012 13:54

Re: El último tren de Gun Hill (John Sturges, 1959) DVDRip Dual SE

Mensaje por loga » Vie 26 Dic, 2014 22:27

Parece que esta vez la Pal supera a la Ntsc. Muchas gracias DMMD.

Responder