Garbancito de la Mancha (José María Blay, Arturo Moreno, 1945) HD 720p

El Foro de Animación. De calidad y tal. Caben dibus, stop-motion, plastilina, pin-screen...
Responder
DCINE
Mensajes: 502
Registrado: Mar 20 Dic, 2016 15:02

Garbancito de la Mancha (José María Blay, Arturo Moreno, 1945) HD 720p

Mensaje por DCINE » Lun 06 Ene, 2020 15:08

Garbancito de la Mancha
1945

Imagen



DIRECTOR: José María Blay, Arturo Moreno
PRODUCTORA: Balet y Blay
GUIÓN: Julián Pemartín, E. Piera, J. Selva, M. Amat
MÚSICA: Jacinto Guerrero


ImagenImagenImagen




ARGUMENTO “Garbancito de la Mancha” es el primer largometraje animado realizado en España. Narra las aventuras de un niño campesino que deberá rescatar a sus amigos de las garras del gigantesco ogro Caramanca y la bruja Tía Pelocha. (FILMAFFINITY) IMDB: https://www.imdb.com/title/tt0037731/

ImagenImagenImagen
ImagenImagenImagen
ImagenImagenImagen
ImagenImagen

Reparto: Carme Contreras, Lolita Duran, Emilio Fábregas, Eduardo Garro, Celedonio Merino, Jesús Puche, Rosita Valero, Segundo Vallespín
http://www.eldoblaje.com/datos/FichaPel ... p?id=17982

Imagen



Datos técnicos

Ripeo de la reciente emisión por TVE-2. Copia restaurada mejorando a las que circulan actualmente.

Una comparativa de las copias que hay desde la 1ª edición en VHS de 1984, pasando por la emitida en TV-3 en 1988 (comparando también el doblaje catalán) y la emitida en 8madrid: https://www.youtube.com/watch?v=Hwj4KaMxeS8

2 pista de audio, la normal y la audiodescriptiva

Pista de subtitulos aparte para sordos

Código: Seleccionar todo

General:

Complete name                    : 1945 Garbancito de la mancha (José María Blay, Arturo Moreno, 1945) HDTV 720p VO RTVE by DCINE.mkv
Format                           : Matroska
Format version                   : Version 4 / Version 2
File size                        : 1.64 GiB
Duration                         : 1h 7mn
Overall bit rate                 : 3 482 Kbps
Movie name                       : 1945 Garbancito de la mancha (José María Blay, Arturo Moreno, 1945) HDTV 720p VO RTVE by DCINE.mkv
Encoded date                     : UTC 2020-01-05 21:39:08
Writing application              : mkvmerge v7.1.0 ('Good Love') 32bit built on Jul 27 2014 12:59:18
Writing library                  : libebml v1.3.0 + libmatroska v1.4.1
_STATISTICS_WRITING_APP          : mkvmerge v7.1.0 ('Good Love') 32bit built on Jul 27 2014 12:59:18
_STATISTICS_WRITING_DATE_UTC     : 2020-01-05 21:39:08
_STATISTICS_TAGS                 : BPS DURATION NUMBER_OF_FRAMES NUMBER_OF_BYTES
DURATION                         : 01:07:33.056000000
NUMBER_OF_FRAMES                 : 126658
NUMBER_OF_BYTES                  : 97273344

Video
ID                               : 1
Format                           : AVC
Format/Info                      : Advanced Video Codec
Format profile                   : High@L5.0
Format settings, CABAC           : Yes
Format settings, ReFrames        : 16 frames
Codec ID                         : V_MPEG4/ISO/AVC
Duration                         : 1h 7mn
Bit rate                         : 3 028 Kbps
Width                            : 960 pixels
Height                           : 720 pixels
Display aspect ratio             : 4:3
Frame rate                       : 25.000 fps
Color space                      : YUV
Chroma subsampling               : 4:2:0
Bit depth                        : 8 bits
Scan type                        : Progressive
Bits/(Pixel*Frame)               : 0.175
Stream size                      : 1.43 GiB (87%)
Writing library                  : x264 core 155 r2901 7d0ff22
Encoding settings                : cabac=1 / ref=16 / deblock=1:0:0 / analyse=0x3:0x133 / me=umh / subme=10 / psy=1 / psy_rd=1.00:0.00 / mixed_ref=1 / me_range=24 / chroma_me=1 / trellis=2 / 8x8dct=1 / cqm=0 / deadzone=21,11 / fast_pskip=1 / chroma_qp_offset=-2 / threads=3 / lookahead_threads=1 / sliced_threads=0 / nr=0 / decimate=1 / interlaced=0 / bluray_compat=0 / constrained_intra=0 / bframes=8 / b_pyramid=2 / b_adapt=2 / b_bias=0 / direct=3 / weightb=1 / open_gop=0 / weightp=2 / keyint=250 / keyint_min=24 / scenecut=40 / intra_refresh=0 / rc_lookahead=60 / rc=crf / mbtree=1 / crf=19.0 / qcomp=0.60 / qpmin=0 / qpmax=69 / qpstep=4 / ip_ratio=1.40 / aq=1:1.00
Default                          : Yes
Forced                           : No

Audio #1
ID                               : 2
Format                           : AC-3
Format/Info                      : Audio Coding 3
Mode extension                   : CM (complete main)
Codec ID                         : A_AC3
Duration                         : 1h 7mn
Bit rate mode                    : Constant
Bit rate                         : 192 Kbps
Channel(s)                       : 2 channels
Channel positions                : Front: L R
Sampling rate                    : 48.0 KHz
Bit depth                        : 16 bits
Compression mode                 : Lossy
Stream size                      : 92.8 MiB (6%)
Language                         : Spanish
Default                          : Yes
Forced                           : Yes

Audio #2
ID                               : 3
Format                           : AC-3
Format/Info                      : Audio Coding 3
Mode extension                   : CM (complete main)
Codec ID                         : A_AC3
Duration                         : 1h 7mn
Bit rate mode                    : Constant
Bit rate                         : 192 Kbps
Channel(s)                       : 2 channels
Channel positions                : Front: L R
Sampling rate                    : 48.0 KHz
Bit depth                        : 16 bits
Compression mode                 : Lossy
Stream size                      : 92.8 MiB (6%)
Title                            : Audiodescipción
Language                         : Spanish
Default                          : No
Forced                           : No



Capturas:

Imagen Imagen
Imagen Imagen
Imagen Imagen
Imagen Imagen
Imagen Imagen








Enlace:

1945 Garbancito de la mancha (José María Blay, Arturo Moreno, 1945) HDTV 720p VO RTVE by DCINE.mkv

Subtítulos: 1945 Garbancito de la mancha (José María Blay, Arturo Moreno, 1945) HDTV 720p VO RTVE by DCINE.srt

DD:

https://drive.google.com/open?id=1sOSgy ... n8ju4ywBuf
Otras copias en la web:

SATRip: viewtopic.php?f=1002&t=46705&hilit=garbancito+mancha

Avatar de Usuario
arthureld
Mensajes: 1367
Registrado: Sab 01 Oct, 2005 02:00
Ubicación: En La Torre Oscura

Re: Garbancito de la Mancha (José María Blay, Arturo Moreno, 1945) HD 720p

Mensaje por arthureld » Mar 14 Ene, 2020 22:25

Me apunto. Muchas gracias, DCINE.

Avatar de Usuario
SolPolito
Vigorito
Mensajes: 3631
Registrado: Lun 03 Feb, 2003 01:00

Re: Garbancito de la Mancha (José María Blay, Arturo Moreno, 1945) HD 720p

Mensaje por SolPolito » Lun 20 Ene, 2020 12:30

Mítico título!
No te dejes
Arriba los pobres de Honduras

Responder