Cuento de Navidad (Stan Phillips, 1997) DVDRip Dual

El Foro de Animación. De calidad y tal. Caben dibus, stop-motion, plastilina, pin-screen...
Responder
Avatar de Usuario
DCINE
Mensajes: 624
Registrado: Mar 20 Dic, 2016 15:02

Cuento de Navidad (Stan Phillips, 1997) DVDRip Dual

Mensaje por DCINE » Vie 27 Dic, 2019 08:57

Cuento de Navidad
(A Christmas Carol)

1997

Imagen



DIRECTOR: Stan Phillips
PRODUCTORA: DiC Enterprises
GUIÓN: Jymn Magon (Historia: Charles Dickens)
MÚSICA: John Campbell, Megan Cavallari







ARGUMENTO Adaptación musical de la historia de Charles Dickens. (FILMAFFINITY) IMDB: https://www.imdb.com/title/tt0112668/




Datos técnicos

Video: DVDFull obtenido de rutracker.

Audios:

V.O.: Ya codificado en AC-3

Doblaje:

Facilitado por zaleiz gracias a una copia en VHS procedente de la Biblioteca Nacional de España.
ficha: http://www.eldoblaje.com/datos/FichaPel ... sp?id=9533

Subtítulos:

No hay, ni el DVD traía

Código: Seleccionar todo

General:

Complete name                    :1997 Cuento de Navidad (A Christmas Carol) (Stan Phillips, 1997) DVDRip Dual (Spa (Doblaje Video 1998)-Eng) by DCINE.mkv
Format                           : Matroska
Format version                   : Version 4 / Version 2
File size                        : 860 MiB
Duration                         : 1h 9mn
Overall bit rate                 : 1 720 Kbps
Movie name                       : 1997 Cuento de Navidad/A Christmas Carol (Stan Phillips, 1997) DVDRip Dual (Spa (Doblaje Video 1998)-Eng) by DCINE.mkv
Encoded date                     : UTC 2019-12-14T22:28:38Z
Writing application              : mkvmerge v7.1.0 ('Good Love') 32bit built on Jul 27 2014 12:59:18
Writing library                  : Lavf57.7.2
_STATISTICS_WRITING_APP          : mkvmerge v7.1.0 ('Good Love') 32bit built on Jul 27 2014 12:59:18
_STATISTICS_WRITING_DATE_UTC     : 2019-12-15 12:15:46
_STATISTICS_TAGS                 : BPS DURATION NUMBER_OF_FRAMES NUMBER_OF_BYTES
DURATION                         : 01:09:54.400000000
NUMBER_OF_FRAMES                 : 131075
NUMBER_OF_BYTES                  : 100665600

Video
ID                               : 1
Format                           : AVC
Format/Info                      : Advanced Video Codec
Format profile                   : High@L4.1
Format settings, CABAC           : Yes
Format settings, ReFrames        : 16 frames
Codec ID                         : V_MPEG4/ISO/AVC
Duration                         : 1h 9mn
Bit rate                         : 1 301 Kbps
Width                            : 706 pixels
Height                           : 480 pixels
Display aspect ratio             : 4:3
Original display aspect ratio    : 4:3
Frame rate mode                  : Variable
Frame rate                       : 29.970 fps
Color space                      : YUV
Chroma subsampling               : 4:2:0
Bit depth                        : 8 bits
Scan type                        : Progressive
Bits/(Pixel*Frame)               : 0.128
Stream size                      : 651 MiB (76%)
Writing library                  : x264 core 155 r2901 7d0ff22
Encoding settings                : cabac=1 / ref=16 / deblock=1:0:0 / analyse=0x3:0x133 / me=umh / subme=10 / psy=1 / psy_rd=1.00:0.00 / mixed_ref=1 / me_range=24 / chroma_me=1 / trellis=2 / 8x8dct=1 / cqm=0 / deadzone=21,11 / fast_pskip=1 / chroma_qp_offset=-2 / threads=3 / lookahead_threads=1 / sliced_threads=0 / nr=0 / decimate=1 / interlaced=0 / bluray_compat=0 / constrained_intra=0 / bframes=8 / b_pyramid=2 / b_adapt=2 / b_bias=0 / direct=3 / weightb=1 / open_gop=0 / weightp=2 / keyint=300 / keyint_min=30 / scenecut=40 / intra_refresh=0 / rc_lookahead=60 / rc=crf / mbtree=1 / crf=19.0 / qcomp=0.60 / qpmin=0 / qpmax=69 / qpstep=4 / vbv_maxrate=62500 / vbv_bufsize=78125 / crf_max=0.0 / nal_hrd=none / filler=0 / ip_ratio=1.40 / aq=1:1.00
Default                          : Yes
Forced                           : No
_STATISTICS_WRITING_APP          : mkvmerge v7.1.0 ('Good Love') 32bit built on Jul 27 2014 12:59:18
_STATISTICS_WRITING_DATE_UTC     : 2019-12-15 12:15:46
_STATISTICS_TAGS                 : BPS DURATION NUMBER_OF_FRAMES NUMBER_OF_BYTES
DURATION                         : 01:09:54.523000000
NUMBER_OF_FRAMES                 : 125709
NUMBER_OF_BYTES                  : 699124175
Color primaries                  : BT.601-6 525, BT.1358 525, BT.1700 NTSC, SMPTE 170M
Transfer characteristics         : BT.709-5, BT.1361
Matrix coefficients              : BT.601-6 525, BT.1358 525, BT.1700 NTSC, SMPTE 170M

Audio #1
ID                               : 2
Format                           : AC-3
Format/Info                      : Audio Coding 3
Mode extension                   : CM (complete main)
Codec ID                         : A_AC3
Duration                         : 1h 9mn
Bit rate mode                    : Constant
Bit rate                         : 192 Kbps
Channel(s)                       : 2 channels
Channel positions                : Front: L R
Sampling rate                    : 48.0 KHz
Bit depth                        : 16 bits
Compression mode                 : Lossy
Stream size                      : 96.0 MiB (11%)
Title                            : Doblaje Video 1998
Language                         : Spanish
Default                          : Yes
Forced                           : Yes
_STATISTICS_WRITING_APP          : mkvmerge v7.1.0 ('Good Love') 32bit built on Jul 27 2014 12:59:18
_STATISTICS_WRITING_DATE_UTC     : 2019-12-15 12:15:46
_STATISTICS_TAGS                 : BPS DURATION NUMBER_OF_FRAMES NUMBER_OF_BYTES
DURATION                         : 01:09:54.368000000
NUMBER_OF_FRAMES                 : 131074
NUMBER_OF_BYTES                  : 100664832

Audio #2
ID                               : 3
Format                           : AC-3
Format/Info                      : Audio Coding 3
Format profile                   : Dolby Digital
Mode extension                   : CM (complete main)
Codec ID                         : A_AC3
Duration                         : 1h 9mn
Bit rate mode                    : Constant
Bit rate                         : 192 Kbps
Channel(s)                       : 2 channels
Channel positions                : Front: L R
Sampling rate                    : 48.0 KHz
Bit depth                        : 16 bits
Compression mode                 : Lossy
Stream size                      : 96.0 MiB (11%)
Language                         : English
Default                          : No
Forced                           : No

Menu #1
00:00:00.099                     : :Chapter 1
00:05:44.043                     : :Chapter 2
00:11:55.414                     : :Chapter 3
00:16:30.989                     : :Chapter 4
00:22:54.973                     : :Chapter 5
00:29:30.768                     : :Chapter 6
00:37:13.597                     : :Chapter 7
00:41:50.874                     : :Chapter 8
00:52:08.425                     : :Chapter 9
00:56:59.716                     : :Chapter 10
00:59:28.498                     : :Chapter 11
01:04:16.385                     : :Chapter 12

Menu #2
00:00:00.000                     : en:Chapter 01
00:05:43.910                     : en:Chapter 02
00:11:55.281                     : en:Chapter 03
00:16:30.956                     : en:Chapter 04
00:22:54.840                     : en:Chapter 05
00:29:30.735                     : en:Chapter 06
00:37:13.564                     : en:Chapter 07
00:41:50.841                     : en:Chapter 08
00:52:08.391                     : en:Chapter 09
00:56:59.682                     : en:Chapter 10
00:59:28.464                     : en:Chapter 11
01:04:16.252                     : en:Chapter 12


Capturas:

Imagen Imagen
Imagen Imagen
Imagen Imagen
Imagen Imagen
Imagen Imagen







Enlace:

ed2k link1997 Cuento de Navidad (A Christmas Carol) (Stan Phillips, 1997) DVDRip Dual (Spa (Doblaje Video 1998)-Eng) by DCINE.mkv ed2k link stats

DD:

https://drive.google.com/open?id=1t7t7s ... YGv2_5evTf

Avatar de Usuario
MILLER
Mensajes: 464
Registrado: Sab 01 Oct, 2005 02:00
Ubicación: Delante del ordenador

Re: Cuento de Navidad (Stan Phillips, 1997) DVDRip Dual

Mensaje por MILLER » Vie 27 Dic, 2019 09:42

Descargando. Muchas gracias por el trabajo!

Responder