Francis el detectigato (Michael Schaack, 1994) DVDRip Dual SE

El Foro de Animación. De calidad y tal. Caben dibus, stop-motion, plastilina, pin-screen...
Responder
Avatar de Usuario
DCINE
Mensajes: 821
Registrado: Mar 20 Dic, 2016 15:02

Francis el detectigato (Michael Schaack, 1994) DVDRip Dual SE

Mensaje por DCINE » Mié 27 Mar, 2024 10:19

Hilo anterior
Francis el detectigato
(Felidae)

1994

Imagen



DIRECTOR: Michael Schaack
PRODUCTORA: Fontana Filmproduktion
GUIÓN: Akif Pirinçci, Martin Kluger. Novela: Akif Pirinçci
MÚSICA: Anne Dudley




ARGUMENTO Francis es un simpático e inteligente gato que acaba de mudarse de casa. Sin embargo, al poco tiempo de llegar a su nuevo barrio, el nuevo inquilino descubre que se trata de un lugar sumamente peligroso: un enigmático asunto está acabando con todos los gatos del vecindario. Ni corto ni perezoso, con la inestimable ayuda de su nuevo amigo Barbazul, Francis se propondrá resolver el misterio antes de que él mismo se convierta en la próxima víctima. Pero no todos los gatos estarán dispuestos a ayudarle en su difícil y arriesgada tarea. (FILMAFFINITY) IMDB: https://www.imdb.com/title/tt0109791/






Datos técnicos

Video: Ripeo de Lucky Luciano procedente de karagarga.

Audios:

V.O. (Alemán): En AC-3. Incluye también pista de audiocomentarios

Doblajes:

Español: Realizado para su edición en video en 1996. De mi VHS digitalizado por DannyKayeFDob. Debido a que la copia editada era una versión reducida eliminado todo el contenido fuerte para intentar vendérsela a los mas pequeños, he tirado del doblaje inglés para cubrir todo lo que faltaba porque los subtítulos disponibles están traducidos para este audio.


Inglés: Realizado en 1995. Ya incluido en el ripeo.

Francés: Realizado en 2008 para su edición en DVD. De una copia encontrada en emule.



Subtítulos:
En español de subdívx, ingleses y alemanes ya incluidos y franceses e italianos de opensubtitles. Forzados en español creados por mi.

Código: Seleccionar todo

General:
Complete name                    : 1994 Francis el detectigato (Felidae) (Michael Schaack) DVDRip (Spa (Doblaje Video 1996)-Ger-Eng-Fre) Subs by Lucky Luciano-DCINE.mkv
Format                           : Matroska
Format version                   : Version 4 / Version 2
File size                        : 1.86 GiB
Duration                         : 1h 18mn
Overall bit rate mode            : Variable
Overall bit rate                 : 3 404 Kbps
Movie name                       : 1994 Francis el detectigato/Felidae (Michael Schaack, 1994) DVDRip (Spa (Doblaje Video 1996)-Ger-Eng (Dub 1995)-Fre (Doublage DVD 2008)) Subs by Lucky Luciano-DCINE.mkv
Encoded date                     : UTC 2023-05-21 06:55:02
Writing application              : mkvmerge v7.1.0 ('Good Love') 32bit built on Jul 27 2014 12:59:18
Writing library                  : libebml v1.3.0 + libmatroska v1.4.1
_STATISTICS_WRITING_APP          : mkvmerge v7.1.0 ('Good Love') 32bit built on Jul 27 2014 12:59:18
_STATISTICS_WRITING_DATE_UTC     : 2023-05-21 06:55:02
_STATISTICS_TAGS                 : BPS DURATION NUMBER_OF_FRAMES NUMBER_OF_BYTES
DURATION                         : 01:18:11.744000000
NUMBER_OF_FRAMES                 : 146617
NUMBER_OF_BYTES                  : 225203712

Video
ID                               : 1
Format                           : AVC
Format/Info                      : Advanced Video Codec
Format profile                   : High@L3.1
Format settings, CABAC           : Yes
Format settings, ReFrames        : 8 frames
Codec ID                         : V_MPEG4/ISO/AVC
Duration                         : 1h 18mn
Bit rate mode                    : Variable
Bit rate                         : 1 768 Kbps
Maximum bit rate                 : 17.5 Mbps
Width                            : 714 pixels
Height                           : 548 pixels
Display aspect ratio             : 16:9
Frame rate                       : 25.000 fps
Color space                      : YUV
Chroma subsampling               : 4:2:0
Bit depth                        : 8 bits
Scan type                        : Progressive
Bits/(Pixel*Frame)               : 0.181
Stream size                      : 989 MiB (52%)
Writing library                  : x264 core 157 r2935 545de2f
Encoding settings                : cabac=1 / ref=9 / deblock=1:-1:-1 / analyse=0x3:0x133 / me=umh / subme=9 / psy=1 / psy_rd=1.00:0.15 / mixed_ref=1 / me_range=16 / chroma_me=1 / trellis=2 / 8x8dct=1 / cqm=0 / deadzone=21,11 / fast_pskip=1 / chroma_qp_offset=-3 / threads=3 / lookahead_threads=1 / sliced_threads=0 / nr=0 / decimate=1 / interlaced=0 / bluray_compat=0 / constrained_intra=0 / bframes=10 / b_pyramid=1 / b_adapt=2 / b_bias=0 / direct=3 / weightb=1 / open_gop=0 / weightp=2 / keyint=250 / keyint_min=25 / scenecut=40 / intra_refresh=0 / rc_lookahead=60 / rc=crf / mbtree=1 / crf=16.6 / qcomp=0.60 / qpmin=0 / qpmax=69 / qpstep=4 / vbv_maxrate=17500 / vbv_bufsize=17500 / crf_max=0.0 / nal_hrd=vbr / filler=0 / ip_ratio=1.40 / aq=1:1.00
Default                          : Yes
Forced                           : No

Audio #1
ID                               : 2
Format                           : AC-3
Format/Info                      : Audio Coding 3
Mode extension                   : CM (complete main)
Codec ID                         : A_AC3
Duration                         : 1h 18mn
Bit rate mode                    : Constant
Bit rate                         : 192 Kbps
Channel(s)                       : 1 channel
Channel positions                : Front: C
Sampling rate                    : 48.0 KHz
Bit depth                        : 16 bits
Compression mode                 : Lossy
Stream size                      : 107 MiB (6%)
Title                            : Doblaje Video 1996 (1.0 Mono) (by DannyKeyFdo-DCINE) (Sync by DCINE)
Language                         : Spanish
Default                          : Yes
Forced                           : Yes

Audio #2
ID                               : 3
Format                           : AC-3
Format/Info                      : Audio Coding 3
Mode extension                   : CM (complete main)
Codec ID                         : A_AC3
Duration                         : 1h 18mn
Bit rate mode                    : Constant
Bit rate                         : 384 Kbps
Channel(s)                       : 2 channels
Channel positions                : Front: L R
Sampling rate                    : 48.0 KHz
Bit depth                        : 16 bits
Compression mode                 : Lossy
Stream size                      : 215 MiB (11%)
Title                            : 2.0 Stereo
Language                         : German
Default                          : No
Forced                           : No

Audio #3
ID                               : 4
Format                           : AC-3
Format/Info                      : Audio Coding 3
Mode extension                   : CM (complete main)
Codec ID                         : A_AC3
Duration                         : 1h 18mn
Bit rate mode                    : Constant
Bit rate                         : 384 Kbps
Channel(s)                       : 2 channels
Channel positions                : Front: L R
Sampling rate                    : 48.0 KHz
Bit depth                        : 16 bits
Compression mode                 : Lossy
Stream size                      : 215 MiB (11%)
Title                            : Dub 1995 (2.0 Stereo)
Language                         : English
Default                          : No
Forced                           : No

Audio #4
ID                               : 5
Format                           : AC-3
Format/Info                      : Audio Coding 3
Mode extension                   : CM (complete main)
Codec ID                         : A_AC3
Duration                         : 1h 18mn
Bit rate mode                    : Constant
Bit rate                         : 384 Kbps
Channel(s)                       : 2 channels
Channel positions                : Front: L R
Sampling rate                    : 48.0 KHz
Bit depth                        : 16 bits
Compression mode                 : Lossy
Stream size                      : 215 MiB (11%)
Title                            : Doublage DVD 2008 (2.0 Stereo)
Language                         : French
Default                          : No
Forced                           : No

Audio #5
ID                               : 6
Format                           : AC-3
Format/Info                      : Audio Coding 3
Mode extension                   : CM (complete main)
Codec ID                         : A_AC3
Duration                         : 1h 18mn
Bit rate mode                    : Constant
Bit rate                         : 224 Kbps
Channel(s)                       : 2 channels
Channel positions                : Front: L R
Sampling rate                    : 48.0 KHz
Bit depth                        : 16 bits
Compression mode                 : Lossy
Stream size                      : 125 MiB (7%)
Title                            : Audiocommentary
Language                         : German
Default                          : No
Forced                           : No

Text #1
ID                               : 7
Format                           : UTF-8
Codec ID                         : S_TEXT/UTF8
Codec ID/Info                    : UTF-8 Plain Text
Title                            : Forzados
Language                         : Spanish
Default                          : Yes
Forced                           : Yes

Text #2
ID                               : 8
Format                           : UTF-8
Codec ID                         : S_TEXT/UTF8
Codec ID/Info                    : UTF-8 Plain Text
Language                         : Spanish
Default                          : No
Forced                           : No

Text #3
ID                               : 9
Format                           : UTF-8
Codec ID                         : S_TEXT/UTF8
Codec ID/Info                    : UTF-8 Plain Text
Language                         : German
Default                          : No
Forced                           : No

Text #4
ID                               : 10
Format                           : UTF-8
Codec ID                         : S_TEXT/UTF8
Codec ID/Info                    : UTF-8 Plain Text
Language                         : English
Default                          : No
Forced                           : No

Text #5
ID                               : 11
Format                           : UTF-8
Codec ID                         : S_TEXT/UTF8
Codec ID/Info                    : UTF-8 Plain Text
Language                         : French
Default                          : No
Forced                           : No

Text #6
ID                               : 12
Format                           : UTF-8
Codec ID                         : S_TEXT/UTF8
Codec ID/Info                    : UTF-8 Plain Text
Language                         : Italian
Default                          : No
Forced                           : No


Capturas:

Imagen Imagen
Imagen Imagen
Imagen Imagen
Imagen Imagen
Imagen Imagen




Enlace:
ed2k link1994 Francis el detectigato (Felidae) (Michael Schaack) DVDRip (Spa (Doblaje Video 1996)-Ger-Eng-Fre) Subs by Lucky Luciano-DCINE.mkv ed2k link stats
Otras copias en la web:
DVDRip VOSE: viewtopic.php?f=1060&t=73497&hilit=felidae

Avatar de Usuario
Dardo
Arrow Thrower Clown
Mensajes: 18154
Registrado: Dom 19 Oct, 2003 02:00
Ubicación: Entre Encinas y Dolomías

Re: Francis el detectigato (Michael Schaack, 1994) DVDRip Dual SE

Mensaje por Dardo » Mié 27 Mar, 2024 12:42

Qué chulada.

:plas: :plas: :plas:

Avatar de Usuario
kiffer
Mensajes: 88
Registrado: Lun 08 Ago, 2011 18:53

Re: Francis el detectigato (Michael Schaack, 1994) DVDRip Dual SE

Mensaje por kiffer » Mié 27 Mar, 2024 13:32

¡Mola! Muchas gracias.

Avatar de Usuario
ostrata
Mensajes: 2794
Registrado: Mié 24 Mar, 2010 17:29

Re: Francis el detectigato (Michael Schaack, 1994) DVDRip Dual SE

Mensaje por ostrata » Mié 27 Mar, 2024 16:56

Gracias. :)

Saludos.

Avatar de Usuario
Spanish Jhonny
Mensajes: 3706
Registrado: Mar 18 Sep, 2012 16:01

Re: Francis el detectigato (Michael Schaack, 1994) DVDRip Dual SE

Mensaje por Spanish Jhonny » Sab 20 Abr, 2024 12:30

Me apunto :plas: :plas:

Responder