Z Channel A Magnificent Obsession (Xan Cassavetes, 2004) DVDRip VOSE

Foro destinado a albergar el documental científico y de divulgación, el documental sobre cine y el reportaje televisivo.
Responder
Avatar de Usuario
Dardo
Arrow Thrower Clown
Mensajes: 16518
Registrado: Dom 19 Oct, 2003 02:00
Ubicación: Entre Encinas y Dolomías

Z Channel A Magnificent Obsession (Xan Cassavetes, 2004) DVDRip VOSE

Mensaje por Dardo » Jue 06 Nov, 2014 19:51

DOCUMENTAL
"Z Channel
A Magnificent Obsession"

(Xan Cassavetes, 2004)
IMDB
Año de producción: 2004
País: Imagen
Dirección: Xan Cassavetes
Intérpretes: Documentary
Música: Steven Hufsteter
Fotografía: John Pirozzi
Duración: 120 min.
Género: Documental.


Sinopsis: El oscuro y enigmático Jerry Harvey es el protagonista del excelso documental "Z Channel: A magnificent obsession", dirigido en 2004 por Xan Cassavetes, hija de John Cassavetes y Gena Rowlands. En los 80s, Harvey convirtió a la cadena de television por cable Z Channel de Los Ángeles en una cadena de culto. En aquellos años sin video ni DVD, no había otra manera de ver cine que ir al cine. Y conformarse con la cartelera. Pero Jerry consiguió el suficiente margen de maniobra para ofrecer a traves del cable, títulos tan difíciles de ver en Estados Unidos y por supuesto sin olvidarse de los jóvenes valores del cine americano de la época. Además, fue pionero en implantar conceptos como el respeto a los formatos, la emisión sin cortes publicitarios o el montaje del director (el hoy famoso Director's Cut) con su duración íntegra. Pero lo bueno suele durar poco...(el resto de la historia está en el documental)

Premios
2004: National Board of Review: Mejores 5 documentales del año

Imagen
Datos del Ripeo
Ripeo anamórfico que desconozco su autor, asi que muchas gracias por el trabajo. Los subtítulos creo recordar que tomé los que había en subdivx trabajo de garre y los sincronicé para este ripeo. Como siempre cualquier mejora de sincronización o traducción será bienvenida.
Datos Técnicos

Código: Seleccionar todo

General
Complete name                            :Z Channel - A Magnificent Obsession [2004].mkv
Format                                   : Matroska
Format version                           : Version 2
File size                                : 1.47 GiB
Duration                                 : 2h 0mn
Overall bit rate                         : 1 736 Kbps
Writing application                      : HandBrake 0.9.5
Writing library                          : libmkv 0.6.4.1

Video
ID                                       : 1
Format                                   : AVC
Format/Info                              : Advanced Video Codec
Format profile                           : High@L3.1
Format settings, CABAC                   : Yes
Format settings, ReFrames                : 7 frames
Codec ID                                 : V_MPEG4/ISO/AVC
Duration                                 : 2h 0mn
Bit rate                                 : 1 540 Kbps
Width                                    : 710 pixels
Height                                   : 480 pixels
Display aspect ratio                     : 16:9
Frame rate mode                          : Variable
Color space                              : YUV
Chroma subsampling                       : 4:2:0
Bit depth                                : 8 bits
Scan type                                : Progressive
Bits/(Pixel*Frame)                       : 0.182
Stream size                              : 1.27 GiB (87%)
Writing library                          : x264 core 112

Audio
ID                                       : 2
Format                                   : AC-3
Format/Info                              : Audio Coding 3
Mode extension                           : CM (complete main)
Codec ID                                 : A_AC3
Duration                                 : 2h 0mn
Bit rate mode                            : Constant
Bit rate                                 : 192 Kbps
Channel(s)                               : 2 channels
Channel positions                        : Front: L R
Sampling rate                            : 48.0 KHz
Bit depth                                : 16 bits
Compression mode                         : Lossy
Stream size                              : 166 MiB (11%)
Language                                 : English
Default                                  : Yes
Forced                                   : No

Menu
00:00:00.000                             : Chapter01 [00:00:00]
00:03:00.564                             : Chapter02 [00:03:00]
00:05:26.501                             : Chapter03 [00:05:26]
00:08:36.508                             : Chapter04 [00:08:36]
00:11:40.167                             : Chapter05 [00:11:40]
00:13:37.584                             : Chapter06 [00:13:37]
00:18:57.103                             : Chapter07 [00:18:57]
00:24:06.587                             : Chapter08 [00:24:06]
00:26:33.734                             : Chapter09 [00:26:33]
00:31:32.758                             : Chapter10 [00:31:32]
00:37:18.328                             : Chapter11 [00:37:18]
00:39:53.333                             : Chapter12 [00:39:53]
00:43:29.941                             : Chapter13 [00:43:29]
00:49:43.047                             : Chapter14 [00:49:42]
00:52:06.591                             : Chapter15 [00:52:06]
00:55:40.045                             : Chapter16 [00:55:40]
00:57:27.060                             : Chapter17 [00:57:27]
00:59:19.072                             : Chapter18 [00:59:19]
01:02:47.064                             : Chapter19 [01:02:47]
01:07:23.565                             : Chapter20 [01:07:23]
01:12:24.558                             : Chapter21 [01:12:24]
01:16:28.626                             : Chapter22 [01:16:28]
01:20:16.345                             : Chapter23 [01:20:16]
01:28:08.450                             : Chapter24 [01:28:08]
01:31:09.422                             : Chapter25 [01:31:09]
01:35:34.046                             : Chapter26 [01:35:34]
01:41:10.465                             : Chapter27 [01:41:10]
01:50:30.648                             : Chapter28 [01:50:30]
01:57:03.124                             : Chapter29 [01:57:03]
02:00:49.517                             : Chapter30 [02:00:49]
Capturas
**Capturas redimensionadas, pinchar encima de ellas para verlas a su tamaño real.
Imagen Imagen Imagen Imagen Imagen Imagen Imagen Imagen Imagen Imagen Imagen Imagen Imagen Imagen Imagen
Enlaces

Avatar de Usuario
Dardo
Arrow Thrower Clown
Mensajes: 16518
Registrado: Dom 19 Oct, 2003 02:00
Ubicación: Entre Encinas y Dolomías

Re: Z Channel A Magnificent Obsession (Xan Cassavetes, 2004) DVDRip V

Mensaje por Dardo » Jue 06 Nov, 2014 19:55

Gracias a Jerry Harvey protagonista de este documental y su pionera cruzada y revolución en los ochenta hemos tenido acceso y conocimiento de copias que hubieran quedado en el olvido. De hecho muchos de los ripeos que se han publicado estos años aparecen en el documental, y su existencia, o su metraje real y la posibilidad de tenerlos son gracias al bueno de Harvey.

Es un documental que desde que lo ví me pareció magistral, se lo recomiendo a todos los cinéfilos, dos horas que son una auténtica disfrute.

Creo que era de justicia tenerlo publicado y que la gente conozca la vida de Jerry Harvey.

Avatar de Usuario
duby
Mensajes: 1441
Registrado: Mié 04 Feb, 2004 01:00

Re: Z Channel A Magnificent Obsession (Xan Cassavetes, 2004) DVDRip V

Mensaje por duby » Jue 06 Nov, 2014 21:50

No sabía nada de este hombre. Muchas gracias Dardo, por traer el documental.

Antígono
Mensajes: 547
Registrado: Vie 01 Mar, 2013 18:59

Re: Z Channel A Magnificent Obsession (Xan Cassavetes, 2004) DVDRip V

Mensaje por Antígono » Vie 07 Nov, 2014 14:20

Gracias por el documental Dardo, parece muy interesante.

Avatar de Usuario
Forrest Gump
Mensajes: 1551
Registrado: Vie 18 May, 2007 18:06
Ubicación: Zihuatanejo

Re: Z Channel A Magnificent Obsession (Xan Cassavetes, 2004) DVDRip V

Mensaje por Forrest Gump » Lun 10 Nov, 2014 07:07

¡¡Muchas gracias, Dardo!! :plas: :plas:
Made it, Ma, top of the world!

Responder