Ukřižovaná (Boris Orlický, 1921) HD 1080p VOSE

La edad de la Pantalla de Plata. Publica y encuentra enlaces p2p de filmes silentes (desde los albores del Cine hasta los años 30) en esta sección.
Avatar de Usuario
JoeGillis
Mensajes: 122
Registrado: Vie 18 May, 2007 23:04
Ubicación: Cuenca
Contactar:

Ukřižovaná (Boris Orlický, 1921) HD 1080p VOSE

Mensaje por JoeGillis » Mar 20 Jul, 2021 18:07

UKŘIŽOVANÁ
(La crucificada)


Imagen

Imagen

FILMAFFINITY

Director: Boris Orlický
Reparto: Karel Lamac, Alexander Suvalov, Natasa Cyganková, Milousek Gröschel, Sasa Dobrovolná, Premysl Prazský, Eduard Blazek, Arnostka Záhoríková, Antonín Marek, Bronislava Livia
Guion: Jan Reiter (Novela: Jakub Arbes)
Año: 1921
País: Checoslovaquia
Duración: 59 min.
Producción: AB
Género: Drama

Argumento: Dos hombres están enamorados de la misma mujer. Uno de ellos es sacerdote. Historia de amor trágico y de antisemitismo.



ImagenImagen
ImagenImagen
ImagenImagen


Datos Técnicos:
Spoiler: mostrar
Format : Matroska
Format version : Version 4 / Version 2
File size : 1.44 GiB
Duration : 58 min
Overall bit rate : 3 501 kb/s
Encoded date : UTC 2021-07-20 15:55:33
Writing application : mkvmerge v9.1.0 ('Little Earthquakes') 64bit
Writing library : libebml v1.3.3 + libmatroska v1.4.4 / Lavf58.29.100

Video
ID : 1
Format : AVC
Format/Info : Advanced Video Codec
Format profile : Main@L4.1
Format settings, CABAC : Yes
Format settings, ReFrames : 4 frames
Codec ID : V_MPEG4/ISO/AVC
Duration : 58 min
Bit rate : 3 500 kb/s
Width : 1 438 pixels
Height : 1 080 pixels
Display aspect ratio : 4:3
Frame rate mode : Constant
Frame rate : 25.000 FPS
Color space : YUV
Chroma subsampling : 4:2:0
Bit depth : 8 bits
Scan type : Progressive
Bits/(Pixel*Frame) : 0.090
Stream size : 1.43 GiB (100%)
Writing library : x264 core 157 r2935 545de2f
Encoding settings : cabac=1 / ref=3 / deblock=1:-1:-1 / analyse=0x1:0x111 / me=hex / subme=7 / psy=1 / psy_rd=1.00:0.15 / mixed_ref=1 / me_range=16 / chroma_me=1 / trellis=1 / 8x8dct=0 / cqm=0 / deadzone=21,11 / fast_pskip=1 / chroma_qp_offset=-3 / threads=6 / lookahead_threads=1 / sliced_threads=0 / nr=0 / decimate=1 / interlaced=0 / bluray_compat=0 / constrained_intra=0 / bframes=3 / b_pyramid=2 / b_adapt=1 / b_bias=0 / direct=1 / weightb=1 / open_gop=0 / weightp=2 / keyint=250 / keyint_min=25 / scenecut=40 / intra_refresh=0 / rc_lookahead=40 / rc=2pass / mbtree=1 / bitrate=3500 / ratetol=1.0 / qcomp=0.60 / qpmin=0 / qpmax=69 / qpstep=4 / cplxblur=20.0 / qblur=0.5 / vbv_maxrate=50000 / vbv_bufsize=62500 / nal_hrd=none / filler=0 / ip_ratio=1.40 / aq=1:1.00
Language : Czech
Default : Yes
Forced : No
Color range : Limited
Color primaries : BT.709
Transfer characteristics : BT.709
Matrix coefficients : BT.709

Text
ID : 2
Format : UTF-8
Codec ID : S_TEXT/UTF8
Codec ID/Info : UTF-8 Plain Text
Duration : 58 min
Bit rate : 14 b/s
Count of elements : 141
Stream size : 6.05 KiB (0%)
Language : Spanish
Default : Yes
Forced : No
Comentario:

Como la película está incompleta y ofrece lagunas difíciles de entender, por una vez añadimos el argumento para mayor comprensión vuestra.

El oficial de artillería Karel Vyšín se enamora de Ruth, la hija de un posadero judío. El amigo de Karl, Xaver, también ama a Ruth, pero no quiere interponerse en el camino de Karl. Cuando Ruth queda embarazada, su padre, enojado, la maldice y la echa de la casa. Ruth y el niño regresan con su padre en el momento en que estalla un pogromo en la aldea. El posadero muere y Ruthes crucificada. Su hijo, Jan, es salvado por Xaver. Ruth (que no ha muerto), transporta a gente buena al monasterio.

Jan, el hijo de Ruth, vive con una madre adoptiva y finalmente estudia en la universidad. Allí, entre los profesores, conoce a Xaver y recuerda a la madre crucificada. Cuando cae enfermo, se va al campo, donde conoce a una joven judía, Ruth, que le recuerda a su madre. Él le confiesa su amor, pero ella lo rechaza hasta que se esclarezca el caso de la crucificada. Jan se va a la guerra. De los soldados aprende no sólo sobre el pogromo y la crucifixión, sino también sobre la misteriosa mujer que vive en el monasterio. La visita y reconoce a su madre en ella. Después de caer herido, Jan yace en la enfermería y su madre se le aparece en la cruz de San Mayor. La novia de Jan llega con su padre y la madre bendice a la joven pareja.

Subtítulos en español de Eddie Constanti dentro del contenedor del archivo.

ed2k linkUkrizovaná (1921) 1080p VOSI-E ed2k link stats

:D

Responder