Hříchy lásky (Karel Lamac, 1929) HD 720p VOSE

La edad de la Pantalla de Plata. Publica y encuentra enlaces p2p de filmes silentes (desde los albores del Cine hasta los años 30) en esta sección.
Avatar de Usuario
JoeGillis
Mensajes: 122
Registrado: Vie 18 May, 2007 23:04
Ubicación: Cuenca
Contactar:

Hříchy lásky (Karel Lamac, 1929) HD 720p VOSE

Mensaje por JoeGillis » Dom 11 Jul, 2021 12:40

HŘÍCHY LÁSKY
(Pecados de amor)


Imagen

Imagen

FILMAFFINITY

Director: Karel Lamac
Reparto: Josef Rovenský, Marcella Albani, Gaston Jacquet, Walter Rilla, Ladislav H. Struna, Karel Schleichert, Alois Charvát, Josef Sváb-Malostranský, Ludvík Veverka, Bronislava Livia, Bohumil Kovár, Jirí Cervený, Cenek Slégl, Betty Kysilková, Vladimír Pospísil-Born, Rudolf Stahl, Josef Novák, Josef Oliak
Guion: Václav Wasserman
Año: 1929
País: Checoslovaquia
Duración: 73 min.
Producción: Bratri Deglové
Género: Drama

Argumento: Drama que trata sobre el exitoso actor de provincias Ivan Kristen, quien consigue un trabajo en el teatro de la ciudad. Pero a diferencia de su joven y hermosa esposa, quien le acompaña y es elegida para los papeles principales, Kristen sólo obtiene papeles secundarios y está celoso por la actuación de su mujer. La tragedia se convertirá en un triángulo amoroso con desenlace de graves consecuencias.



ImagenImagen
ImagenImagen
ImagenImagen


Datos Técnicos:
Spoiler: mostrar
Format : Matroska
Format version : Version 4 / Version 2
File size : 933 MiB
Duration : 1 h 15 min
Overall bit rate : 1 730 kb/s
Encoded date : UTC 2021-07-07 09:37:15
Writing application : mkvmerge v9.1.0 ('Little Earthquakes') 64bit
Writing library : libebml v1.3.3 + libmatroska v1.4.4 / Lavf58.29.100

Video
ID : 1
Format : AVC
Format/Info : Advanced Video Codec
Format profile : Main@L4.1
Format settings, CABAC : Yes
Format settings, ReFrames : 4 frames
Codec ID : V_MPEG4/ISO/AVC
Duration : 1 h 15 min
Bit rate : 1 600 kb/s
Width : 956 pixels
Height : 706 pixels
Display aspect ratio : 4:3
Frame rate mode : Constant
Frame rate : 25.000 FPS
Color space : YUV
Chroma subsampling : 4:2:0
Bit depth : 8 bits
Scan type : Progressive
Bits/(Pixel*Frame) : 0.095
Stream size : 863 MiB (92%)
Writing library : x264 core 157 r2935 545de2f
Encoding settings : cabac=1 / ref=3 / deblock=1:-1:-1 / analyse=0x1:0x111 / me=hex / subme=7 / psy=1 / psy_rd=1.00:0.15 / mixed_ref=1 / me_range=16 / chroma_me=1 / trellis=1 / 8x8dct=0 / cqm=0 / deadzone=21,11 / fast_pskip=1 / chroma_qp_offset=-3 / threads=6 / lookahead_threads=1 / sliced_threads=0 / nr=0 / decimate=1 / interlaced=0 / bluray_compat=0 / constrained_intra=0 / bframes=3 / b_pyramid=2 / b_adapt=1 / b_bias=0 / direct=1 / weightb=1 / open_gop=0 / weightp=2 / keyint=250 / keyint_min=25 / scenecut=40 / intra_refresh=0 / rc_lookahead=40 / rc=2pass / mbtree=1 / bitrate=1600 / ratetol=1.0 / qcomp=0.60 / qpmin=0 / qpmax=69 / qpstep=4 / cplxblur=20.0 / qblur=0.5 / vbv_maxrate=50000 / vbv_bufsize=62500 / nal_hrd=none / filler=0 / ip_ratio=1.40 / aq=1:1.00
Language : Czech
Default : Yes
Forced : No
Color range : Limited
Color primaries : BT.709
Transfer characteristics : BT.709
Matrix coefficients : BT.709

Audio
ID : 2
Format : AAC
Format/Info : Advanced Audio Codec
Format profile : LC
Codec ID : A_AAC
Duration : 1 h 15 min
Bit rate : 128 kb/s
Channel(s) : 2 channels
Channel positions : Front: L R
Sampling rate : 44.1 kHz
Frame rate : 43.066 FPS (1024 spf)
Compression mode : Lossy
Stream size : 69.0 MiB (7%)
Default : Yes
Forced : No

Text
ID : 3
Format : UTF-8
Codec ID : S_TEXT/UTF8
Codec ID/Info : UTF-8 Plain Text
Duration : 1 h 13 min
Bit rate : 15 b/s
Count of elements : 184
Stream size : 8.18 KiB (0%)
Language : Spanish
Default : Yes
Forced : No
Comentario:

"Pecados de amor" es la segunda de las películas de Karel Lamac que está disponible en línea en el Archivo Nacional de Cine de la República Checa, y aunque a menudo sólo dos imágenes no son suficientes para reconocer un patrón, mucho se comparte entre ésta y su otra película, "Paraíso blanco". Más allá de los suaves romances entre parejas jóvenes, ambas son tentadoramente reflexivas y ninguna de ellas carece de interés. Por extraño que parezca, en ambas esto incluye títeres interpretados por un hombre mayor que ejerce una especie de capacidad de supervisión del amor de los jóvenes.

Además, en "Paraíso blanco" había un efecto de exposición múltiple de sueño o visión que era algo así como una película dentro de la película. Esta vez obtenemos una obra dentro de la obra y en lugar del ritmo casi novelístico (o al menos así lo llamé) de la película anterior y su espacio escénico, aquí tenemos el melodrama y los actores teatrales. Como suele ser el caso, aquí actuar se equipara a la infidelidad, ya que la Julieta en este asunto de Shakespeare está casada con otro actor y es mayor que aquel con el que coquetea. Lástima que el romance sea algo aburrido y que los actores sean horriblemente mentirosos cuando se trata de interrogatorios policiales. Sin embargo, el final está bien ejecutado y gran parte del malentendido del melodrama se basa en la apariencia: la información incompleta que los personajes obtienen de lo que ven.

Esta sugerencia de la ilusión de lo que uno ve en sí mismo es bastante reflexiva y un director como Ernst Lubitsch podría hacerlo mucho mejor con ese material, incluso hacer que las cosas sexuales sean divertidas. Véase "El círculo del matrimonio" (1924), "El abanico de Lady Windermere" (1925) o "Así que esto es París" (1926), para los primeros ejemplos. Al margen de eso, me temo que la puntuación de la banda sonora de estas películas checas será uniformemente atroz. Al igual que con la música para "Paraíso blanco", apenas pude soportar un tercio de ésta y dejé el sonido a cero. De manera risible, los músicos afirman que su objetivo era que la música resonara con la narrativa y permitiera al espectador concentrarse en la película en sí. Pues no, no debes unir un montón de electrónica estática distractora sin relevancia para las imágenes si ésa es tu intención. Incluso hay pistas musicales y sonoras dentro de la película, que incluyen algún instrumento musical que se toca desde el principio -un disco en una fiesta y el claxon del automóvil al final-, ninguno de los cuales esta partitura se molesta en reconocer.

(IMDb, traducción de Eddie Constanti.)

Subtítulos en español de Eddie Constanti dentro del contenedor del archivo.

ed2k linkHříchy lásky (1929) WEBRip 720p ed2k link stats

:D

Responder