Hurra! Ich lebe! (Wilhelm Thiele, 1928) HD 1080p VISE

La edad de la Pantalla de Plata. Publica y encuentra enlaces p2p de filmes silentes (desde los albores del Cine hasta los años 30) en esta sección.
Responder
Avatar de Usuario
JoeGillis
Mensajes: 122
Registrado: Vie 18 May, 2007 23:04
Ubicación: Cuenca
Contactar:

Hurra! Ich lebe! (Wilhelm Thiele, 1928) HD 1080p VISE

Mensaje por JoeGillis » Mié 23 Jun, 2021 12:58

HURRA! ICH LEBE!
(¡Viva la vida!)


Imagen

Imagen

FILMAFFINITY

Director: Wilhelm Thiele
Reparto: Nicolas Koline, Max Gülstorff, Alexej Bondireff, Nathalie Lissenko, Gustav Fröhlich, Betty Astor, Dimitri Dimitriev, Fritz Greiner, Walia Ostermann, Georg H. Schnell
Guion: Friedrich Raff, Julius Urgiss (Obra: Georg Kaiser)
Año: 1928
País: Alemania
Duración: 77 min.
Producción: UFA
Género: Comedia

Argumento: Pieter vive en un pueblo de Holanda y regenta un negocio poco menos que ruinoso. Un día recibe una carta de Joe, un amigo de su infancia, que ahora reside en Estados Unidos. Joe, un hombre adinerado, le propone que vaya a visitarle y le ofrece 50.000 dólares para que acabe con sus penurias económicas.



ImagenImagen
ImagenImagen
ImagenImagen


Datos Técnicos:
Spoiler: mostrar
Format : Matroska
Format version : Version 4 / Version 2
File size : 2.53 GiB
Duration : 1 h 17 min
Overall bit rate : 4 695 kb/s
Movie name : Hurra, ich lebe! [1928]
Encoded date : UTC 2021-06-21 10:05:16
Writing application : mkvmerge v9.1.0 ('Little Earthquakes') 64bit
Writing library : libebml v1.3.3 + libmatroska v1.4.4 / Lavf58.29.100

Video
ID : 1
Format : AVC
Format/Info : Advanced Video Codec
Format profile : Main@L4.1
Format settings, CABAC : Yes
Format settings, ReFrames : 4 frames
Codec ID : V_MPEG4/ISO/AVC
Duration : 1 h 17 min
Bit rate : 4 500 kb/s
Width : 1 440 pixels
Height : 1 080 pixels
Display aspect ratio : 4:3
Frame rate mode : Constant
Frame rate : 25.000 FPS
Color space : YUV
Chroma subsampling : 4:2:0
Bit depth : 8 bits
Scan type : Progressive
Bits/(Pixel*Frame) : 0.116
Stream size : 2.42 GiB (96%)
Writing library : x264 core 157 r2935 545de2f
Encoding settings : cabac=1 / ref=3 / deblock=1:-1:-1 / analyse=0x1:0x111 / me=hex / subme=7 / psy=1 / psy_rd=1.00:0.15 / mixed_ref=1 / me_range=16 / chroma_me=1 / trellis=1 / 8x8dct=0 / cqm=0 / deadzone=21,11 / fast_pskip=1 / chroma_qp_offset=-3 / threads=6 / lookahead_threads=1 / sliced_threads=0 / nr=0 / decimate=1 / interlaced=0 / bluray_compat=0 / constrained_intra=0 / bframes=3 / b_pyramid=2 / b_adapt=1 / b_bias=0 / direct=1 / weightb=1 / open_gop=0 / weightp=2 / keyint=250 / keyint_min=25 / scenecut=40 / intra_refresh=0 / rc_lookahead=40 / rc=2pass / mbtree=1 / bitrate=4500 / ratetol=1.0 / qcomp=0.60 / qpmin=0 / qpmax=69 / qpstep=4 / cplxblur=20.0 / qblur=0.5 / vbv_maxrate=50000 / vbv_bufsize=62500 / nal_hrd=none / filler=0 / ip_ratio=1.40 / aq=1:1.00
Language : English
Default : Yes
Forced : No
Color range : Limited
Color primaries : BT.709
Transfer characteristics : BT.709
Matrix coefficients : BT.709

Audio
ID : 2
Format : AAC
Format/Info : Advanced Audio Codec
Format profile : LC
Codec ID : A_AAC
Duration : 1 h 17 min
Bit rate : 192 kb/s
Channel(s) : 2 channels
Channel positions : Front: L R
Sampling rate : 48.0 kHz
Frame rate : 46.875 FPS (1024 spf)
Compression mode : Lossy
Stream size : 106 MiB (4%)
Default : Yes
Forced : No

Text
ID : 3
Format : UTF-8
Codec ID : S_TEXT/UTF8
Codec ID/Info : UTF-8 Plain Text
Duration : 1 h 16 min
Bit rate : 12 b/s
Count of elements : 180
Stream size : 6.85 KiB (0%)
Language : Spanish
Default : Yes
Forced : No
Comentario de Eddie Constanti:

Aquí tenemos a un grupo de la productora Albatros (Nathalie Lissenko, Nikolai Koline...), junto a Gustav Fröhlich ("Metrópolis"), en una comedia alemana dirigida por Whilhelm Thiele. Si el mandamiento principal de una película de ese género es entretener, hay que decir que "Hurra! Ich lebe!" lo hace y con creces. A ello contribuye un grupo de actores que, cada uno en su papel, tienen una participación sobresaliente, encabezados por un genial Nikolai Koline, encarnando a ese pobre diablo que, por suerte, se olvida de subir al barco que naufragará.

El argumento es fluido y la fotografía correcta, a pesar de que a veces la imagen amenaza con desplazarse. Tenemos referencias de que la copia es la que circuló para la exportación (no hay otra) y que por el camino se perdieron algunos minutos de metraje, algo que no se aprecia en la trama. Parece ser, también, que en su tiempo se estrenó en España con el título de "¡Viva la vida!". Y una recomendación: no os perdáis la escena penúltima, cuando se descubre todo el pastel, con los dos malévolos hermanos apretando con fuerza los codos contra la tapa del mueble en que Pieter está escondido.

Subtítulos en español de Eddie Constanti dentro del contenedor del archivo.

ed2k linkHurra.Ich.Lebe.1928.1080P.Web-Dl.Aac.2.0.X264-Shr.mkv ed2k link stats

:D

Avatar de Usuario
Jacob
Exprópiese
Mensajes: 10020
Registrado: Jue 01 Jul, 2004 02:00
Ubicación: Where no one has gone before!

Re: Hurra! Ich lebe! (Wilhelm Thiele, 1928) HD 1080p VISE

Mensaje por Jacob » Mié 23 Jun, 2021 17:06

¡Muchas gracias! :plas:

Avatar de Usuario
eulsus
Mensajes: 2011
Registrado: Vie 18 May, 2007 10:41
Ubicación: La Palma

Re: Hurra! Ich lebe! (Wilhelm Thiele, 1928) HD 1080p VISE

Mensaje por eulsus » Mié 23 Jun, 2021 17:10

Muchas gracias, Lobo. Yo también me apunto. :plas:
Imagen
Antonio García-Trevijano Forte (1927-2018)
"Para que yo sea libre, todos tienen que ser libres"

Abstención activa hasta que haya Libertad Colectiva

kabuki
Mensajes: 271
Registrado: Dom 03 Oct, 2004 02:00

Re: Hurra! Ich lebe! (Wilhelm Thiele, 1928) HD 1080p VISE

Mensaje por kabuki » Mié 07 Jul, 2021 16:26

Muchas gracias,Joe y Eddie.

Responder